Filecrypt zeigt vereinzelt Files als "n/a". Die Downloads sind trotzdem komplett.

DNS SERVER AENDERNum der staatlichen Zensur zu umgehen. Sollten wir von eurem Provider geseprrt werden, nutzt den TOR BROWSER oder ändert euren DNS SERVER.

Filmwünsche können bei uns im Forum abgegeben werden

Wir Speichern Nicht




 
 
 
Top Releases
Le.Jeu.Nichts.zu.verbergen.2...
Le.Jeu.Nichts.zu.verbergen.2...
Cam.2018.German.DL.1080p.WEB...
Cam.2018.German.DL.720p.WEB....
Teen.Titans.Go.To.the.Movies...
The.Ballad.of.Buster.Scruggs...
Teen.Titans.Go.To.the.Movies...
The.Ballad.of.Buster.Scruggs...
Logan.The.Wolverine.2017.NOI...
Mandy.2018.German.DL.1080p.B...

Cinedubs
Christopher.Robin.German.DL....
Christopher.Robin.German.DL....
A.Star.Is.Born.German.DL.AC3...
A.Star.Is.Born.German.DL.AC3...
Mission.Impossible.Fallout.G...
Mission.Impossible.Fallout.G...
Sicario.2.2018.German.DL.AC3...
Juliet.Naked.2018.GERMAN.DL....
Juliet.Naked.2018.GERMAN.DL....
10x10.2018.German.AC3D.DL.10...

Neuerscheinungen 2017-18
In.Darkness.2018.MULTI.COMPL...
Boarding.School.2018.COMPLET...
Immortal.Wars.Nur.der.Staerk...
Beautiful.People.2014.German...
Mission.Yeti.2017.German.DL....
Mission.Yeti.2017.German.720...
Boarding.School.2018.German....
Boarding.School.2018.German....
10x10.2018.GERMAN.DL.1080p.B...
10x10.2018.GERMAN.720p.BluRa...

XXX
NetVideoGirls.18.10.23.Janey...
NHLPCentral.18.06.21.Brook.L...
LustyGrandmas.18.03.22.Marsh...
POVPornstars.18.10.30.Lila.M...
POVLife.18.10.29.Skylar.Vale...
NetGirl.18.10.17.Gemma.And.A...
NewSensations.18.10.29.Angel...
Nubiles.18.10.29.Cleo.Mijare...
OldYoungLesbianLove.18.10.29...
NHLPCentral.18.06.14.Honour....
NubileFilms.18.10.29.Riley.S...
LustyGrandmas.18.04.02.Sila....
PlayboyPlus.18.10.29.Jenessa...
Old-n-Young.18.10.27.Blue.Sk...
NewSensations.18.10.31.Emily...
OnlyBlowJob.18.10.04.Rose.XX...
PlayboyPlus.18.10.28.Playmat...
LustyGrandmas.18.04.08.Viol....
PixAndVideo.18.10.29.Marica....
Passion-HD.18.10.31.Megan.Wi...

3D
Die.Unglaublichen.2.2018.3D....
Skyscraper.3D.2018.MULTi.COM...
Ant-Man.And.The.Wasp.3D.2018...
Ant.Man.and.the.Wasp.3D.2018...
Die.Unglaublichen.2.3D.2018....
Die.Unglaublichen.2.2018.3D....
Die.Unglaublichen.2.2018.3D....
Sharknado.6.The.Last.One.3D....
Deep.Kleine.Helden.der.Tiefs...
Deep.3D.2017.MULTI.COMPLETE....
Detective.Dee.und.die.Legend...
Detective.Dee.und.die.Legend...
Skyscraper.3D.German.DL.AC3....
Ant-Man.and.the.Wasp.2018.3D...
Jurassic.World.Das.gefallene...

Old_Stuff
Detective.Dee.und.das.Geheim...
Detective.Dee.Und.Der.Fluch....
Ghost.Rider.Spirit.of.Vengea...
Species.IV.Das.Erwachen.2007...
Species.IV.Das.Erwachen.2007...
Hotel.Transsilvanien.2012.Ge...
The.Dead.2010.German.DL.1080...
The.Dead.2.India.2013.German...
Britney.Spears.Live.The.Femm...
Buffy.The.Vampire.Slayer.199...
IMAX.Ride.Around.The.World.2...
Schimanski.-.Duisburg.Ruhror...
Akte.X.S02.German.DTS.DL.108...
How.I.Met.Your.Mother.S02.Ge...
Akte.X.S01.German.DTS.DL.108...

Filme
Oliver.Twist.1948.German.AC3...
Gold.Diggers.-.Das.Geheimnis...
Der.Salamander.1981.German.A...
Revenge.2017.German.1080p.DT...
Der.Marsianer.Rettet.Mark.Wa...
Hereditary.Das.Vermaechtnis....
Rocky.1976.German.DL.DTS.Dub...
Scorpion.King.Das.Buch.der.S...
Das.Geheimniss.von.Marrowbon...
Es.2017.German.DL.1080p.BluR...
Todesritt.nach.Jericho.2006....
Teen.Titans.Go.To.the.Movies...
Todesschuesse.am.Broadway.19...
Todeszug.nach.Yuma.2007.Germ...
Toedliche.Bekenntnisse.2001....
Hereditary.Das.Vermaechtnis....
Jigsaw.2017.German.DL.1080p....
The.Strangers.Opfernacht.UNR...
Toedlicher.Anruf.2008.German...
Toedlicher.Charme.1990.Germa...
Toedlicher.Irrtum.1970.Germa...
Tanz.der.Teufel.2.1987.Remas...
To.Save.a.Life.2009.German.D...
Clockers.1995.German.DL.1080...

 
 
Star.Wars.Episode.V.Das.Imperium.schlaegt.zurueck.DESPECIALIZED.PROPER.1980.German.DL.AC3.720p.BluRay.x265-FuN

Jahr: 1980
Genre: Action, Sci-Fi
Sprache: Deutsch AC3 | Englisch AC3
Laufzeit: 2h 5mn
Bitrate: 3 599 Kbps
Format: MKV
Größe: 3.15 GiB
Release:

Beschreibung:

Der Todesstern ist zerstört. Die siegreichen Rebellen haben sich auf den Eisplaneten Hoth zurückgezogen und planen dort weitere Schläge gegen das Imperium, bis ein Suchdroide den Schildgenerator der Rebellen ausfindig macht. Fast zur gleichen Zeit wird Luke Skywalker (Mark Hamill) von einem Wampa, einem einheimischen Schneemonster, gefangen genommen und kann sich nur mit Hilfe der Macht befreien. Schwer verletzt erscheint ihm Obi-Wan-Kenobi (Alec Guinness) und weist Luke an Meister Yoda (Frank Oz) im Dagobah- System aufzusuchen. Kurz vor dem eintretenden Kältetod wird Luke, zu geschwächt um die Basis zu erreichen, von Han Solo (Harrison Ford) gerettet. Unterdessen bereiten sich die Rebellen auf das unvermeidliche Aufeinandertreffen mit den imperialen Truppen vor. Beim nun folgenden Kampf sind und die Rebellen sind gezwungen den Stützpunkt aufzugeben. Han Solo entkommt mit Prinzessin Leia Organa (Carrie Fisher); Chewbacca (Peter Mayhew) und C-3PO (Anthony Daniels) in dessen Millennium Falken, während Luke sich mit dem Astromech-Droiden R2-D2 (Kenny Baker) in Richtung Degoba-System begibt um Meister Yoda aufzusuchen und endlich als vollständiger Jedi-Ritter ausgebildet zu werden…

 




Format                                   : Matroska
Format version                           : Version 4 / Version 2
File size                                : 3.15 GiB
Duration                                 : 2h 5mn
Overall bit rate                         : 3 599 Kbps
Encoded date                             : UTC 2018-10-14 21:21:35
Writing application                      : mkvmerge v26.0.0 ('In The Game') 64-bit
Writing library                          : libebml v1.3.6 + libmatroska v1.4.9

Video
ID                                       : 1
Format                                   : HEVC
Format/Info                              : High Efficiency Video Coding
Format profile                           : Main@L3.1
Codec ID                                 : V_MPEGH/ISO/HEVC
Duration                                 : 2h 5mn
Bit rate                                 : 1 864 Kbps
Width                                    : 1 276 pixels
Height                                   : 540 pixels
Display aspect ratio                     : 2.35:1
Frame rate mode                          : Constant
Frame rate                               : 23.976 fps
Color space                              : YUV
Chroma subsampling                       : 4:2:0
Bit depth                                : 8 bits
Bits/(Pixel*Frame)                       : 0.113
Stream size                              : 1.63 GiB (52%)
Writing library                          : x265 2.6:[Windows][GCC 7.3.0][64 bit] 8bit+10bit+12bit
Encoding settings                        : cpuid=1050111 / frame-threads=2 / numa-pools=4 / wpp / no-pmode / no-pme / no-psnr / no-ssim / log-level=2 / input-csp=1 / input-res=1276x540 / interlace=0 / total-frames=0 / level-idc=0 / high-tier=1 / uhd-bd=0 / ref=3 / no-allow-non-conformance / no-repeat-headers / annexb / no-aud / no-hrd / info / hash=0 / no-temporal-layers / open-gop / min-keyint=24 / keyint=240 / bframes=4 / b-adapt=2 / b-pyramid / bframe-bias=0 / rc-lookahead=20 / lookahead-slices=0 / scenecut=40 / no-intra-refresh / ctu=64 / min-cu-size=8 / no-rect / no-amp / max-tu-size=32 / tu-inter-depth=1 / tu-intra-depth=1 / limit-tu=0 / rdoq-level=0 / dynamic-rd=0.00 / no-ssim-rd / signhide / no-tskip / nr-intra=0 / nr-inter=0 / no-constrained-intra / no-strong-intra-smoothing / max-merge=2 / limit-refs=3 / no-limit-modes / me=1 / subme=2 / merange=57 / temporal-mvp / weightp / no-weightb / no-analyze-src-pics / deblock=0:0 / no-sao / no-sao-non-deblock / rd=3 / no-early-skip / rskip / no-fast-intra / no-tskip-fast / no-cu-lossless / no-b-intra / no-splitrd-skip / rdpenalty=0 / psy-rd=2.00 / psy-rdoq=0.00 / no-rd-refine / analysis-reuse-mode=0 / no-lossless / cbqpoffs=0 / crqpoffs=0 / rc=crf / crf=20.0 / qcomp=0.60 / qpstep=4 / stats-write=0 / stats-read=0 / ipratio=1.40 / pbratio=1.30 / aq-mode=1 / aq-strength=1.00 / cutree / zone-count=0 / no-strict-cbr / qg-size=32 / no-rc-grain / qpmax=69 / qpmin=0 / no-const-vbv / sar=1 / overscan=0 / videoformat=5 / range=0 / colorprim=1 / transfer=1 / colormatrix=1 / chromaloc=0 / display-window=0 / max-cll=0,0 / min-luma=0 / max-luma=255 / log2-max-poc-lsb=8 / vui-timing-info / vui-hrd-info / slices=1 / no-opt-qp-pps / no-opt-ref-list-length-pps / no-multi-pass-opt-rps / scenecut-bias=0.05 / no-opt-cu-delta-qp / no-aq-motion / no-hdr / no-hdr-opt / no-dhdr10-opt / analysis-reuse-level=5 / scale-factor=0 / refine-intra=0 / refine-inter=0 / refine-mv=0 / no-limit-sao / ctu-info=0 / no-lowpass-dct / refine-mv-type=0 / copy-pic=1
Default                                  : Yes
Forced                                   : No
DURATION                                 : 02:05:28.063000000
NUMBER_OF_FRAMES                         : 180493
NUMBER_OF_BYTES                          : 1823783045
_STATISTICS_WRITING_APP                  : mkvmerge v26.0.0 ('In The Game') 64-bit
_STATISTICS_WRITING_DATE_UTC             : 2018-10-14 21:21:35
_STATISTICS_TAGS                         : BPS DURATION NUMBER_OF_FRAMES NUMBER_OF_BYTES

Audio #1
ID                                       : 2
Format                                   : AC-3
Format/Info                              : Audio Coding 3
Mode extension                           : CM (complete main)
Format settings, Endianness              : Big
Codec ID                                 : A_AC3
Duration                                 : 2h 5mn
Bit rate mode                            : Constant
Bit rate                                 : 192 Kbps
Channel(s)                               : 2 channels
Channel positions                        : Front: L R
Sampling rate                            : 48.0 KHz
Bit depth                                : 16 bits
Compression mode                         : Lossy
Stream size                              : 172 MiB (5%)
Title                                    : 1980 2.0 @ 192 kbps
Language                                 : German
Default                                  : Yes
Forced                                   : No
DURATION                                 : 02:05:28.096000000
NUMBER_OF_FRAMES                         : 235253
NUMBER_OF_BYTES                          : 180674304
_STATISTICS_WRITING_APP                  : mkvmerge v26.0.0 ('In The Game') 64-bit
_STATISTICS_WRITING_DATE_UTC             : 2018-10-14 21:21:35
_STATISTICS_TAGS                         : BPS DURATION NUMBER_OF_FRAMES NUMBER_OF_BYTES

Audio #2
ID                                       : 3
Format                                   : AC-3
Format/Info                              : Audio Coding 3
Mode extension                           : CM (complete main)
Format settings, Endianness              : Big
Codec ID                                 : A_AC3
Duration                                 : 2h 5mn
Bit rate mode                            : Constant
Bit rate                                 : 192 Kbps
Channel(s)                               : 2 channels
Channel positions                        : Front: L R
Sampling rate                            : 48.0 KHz
Bit depth                                : 16 bits
Compression mode                         : Lossy
Stream size                              : 172 MiB (5%)
Title                                    : 1993 SilverScreen LD 2.0 @ 192 kbps
Language                                 : German
Default                                  : No
Forced                                   : No
DURATION                                 : 02:05:01.728000000
NUMBER_OF_FRAMES                         : 234429
NUMBER_OF_BYTES                          : 180041472
_STATISTICS_WRITING_APP                  : mkvmerge v26.0.0 ('In The Game') 64-bit
_STATISTICS_WRITING_DATE_UTC             : 2018-10-14 21:21:35
_STATISTICS_TAGS                         : BPS DURATION NUMBER_OF_FRAMES NUMBER_OF_BYTES



Download:
Share Online Share OnlineShare OnlineShare Online
 

Kommentare