Filecrypt zeigt vereinzelt Files als "n/a". Die Downloads sind trotzdem komplett.

DNS SERVER AENDERNum der staatlichen Zensur zu umgehen. Sollten wir von eurem Provider geseprrt werden, nutzt den TOR BROWSER oder ändert euren DNS SERVER.

Filmwünsche können bei uns im Forum abgegeben werden

Wir Speichern Nicht




 
 
 
Top Releases
Le.Jeu.Nichts.zu.verbergen.2...
Le.Jeu.Nichts.zu.verbergen.2...
Cam.2018.German.DL.1080p.WEB...
Cam.2018.German.DL.720p.WEB....
Teen.Titans.Go.To.the.Movies...
The.Ballad.of.Buster.Scruggs...
Teen.Titans.Go.To.the.Movies...
The.Ballad.of.Buster.Scruggs...
Logan.The.Wolverine.2017.NOI...
Mandy.2018.German.DL.1080p.B...

Cinedubs
Christopher.Robin.German.DL....
Christopher.Robin.German.DL....
A.Star.Is.Born.German.DL.AC3...
A.Star.Is.Born.German.DL.AC3...
Mission.Impossible.Fallout.G...
Mission.Impossible.Fallout.G...
Sicario.2.2018.German.DL.AC3...
Juliet.Naked.2018.GERMAN.DL....
Juliet.Naked.2018.GERMAN.DL....
10x10.2018.German.AC3D.DL.10...

Neuerscheinungen 2017-18
Immortal.Wars.Nur.der.Staerk...
Beautiful.People.2014.German...
Mission.Yeti.2017.German.DL....
Mission.Yeti.2017.German.720...
Boarding.School.2018.German....
Boarding.School.2018.German....
10x10.2018.GERMAN.DL.1080p.B...
10x10.2018.GERMAN.720p.BluRa...
The.Marine.6.Close.Quarters....
The.Marine.6.Close.Quarters....

XXX
NetVideoGirls.18.10.23.Janey...
NHLPCentral.18.06.21.Brook.L...
LustyGrandmas.18.03.22.Marsh...
POVPornstars.18.10.30.Lila.M...
POVLife.18.10.29.Skylar.Vale...
NetGirl.18.10.17.Gemma.And.A...
NewSensations.18.10.29.Angel...
Nubiles.18.10.29.Cleo.Mijare...
OldYoungLesbianLove.18.10.29...
NHLPCentral.18.06.14.Honour....
NubileFilms.18.10.29.Riley.S...
LustyGrandmas.18.04.02.Sila....
PlayboyPlus.18.10.29.Jenessa...
Old-n-Young.18.10.27.Blue.Sk...
NewSensations.18.10.31.Emily...
OnlyBlowJob.18.10.04.Rose.XX...
PlayboyPlus.18.10.28.Playmat...
LustyGrandmas.18.04.08.Viol....
PixAndVideo.18.10.29.Marica....
Passion-HD.18.10.31.Megan.Wi...

3D
Die.Unglaublichen.2.2018.3D....
Skyscraper.3D.2018.MULTi.COM...
Ant-Man.And.The.Wasp.3D.2018...
Ant.Man.and.the.Wasp.3D.2018...
Die.Unglaublichen.2.3D.2018....
Die.Unglaublichen.2.2018.3D....
Die.Unglaublichen.2.2018.3D....
Sharknado.6.The.Last.One.3D....
Deep.Kleine.Helden.der.Tiefs...
Deep.3D.2017.MULTI.COMPLETE....
Detective.Dee.und.die.Legend...
Detective.Dee.und.die.Legend...
Skyscraper.3D.German.DL.AC3....
Ant-Man.and.the.Wasp.2018.3D...
Jurassic.World.Das.gefallene...

Old_Stuff
Detective.Dee.und.das.Geheim...
Detective.Dee.Und.Der.Fluch....
Ghost.Rider.Spirit.of.Vengea...
Species.IV.Das.Erwachen.2007...
Species.IV.Das.Erwachen.2007...
Hotel.Transsilvanien.2012.Ge...
The.Dead.2010.German.DL.1080...
The.Dead.2.India.2013.German...
Britney.Spears.Live.The.Femm...
Buffy.The.Vampire.Slayer.199...
IMAX.Ride.Around.The.World.2...
Schimanski.-.Duisburg.Ruhror...
Akte.X.S02.German.DTS.DL.108...
How.I.Met.Your.Mother.S02.Ge...
Akte.X.S01.German.DTS.DL.108...

Filme
Scorpion.King.Das.Buch.der.S...
Das.Geheimniss.von.Marrowbon...
Es.2017.German.DL.1080p.BluR...
Todesritt.nach.Jericho.2006....
Teen.Titans.Go.To.the.Movies...
Todesschuesse.am.Broadway.19...
Todeszug.nach.Yuma.2007.Germ...
Toedliche.Bekenntnisse.2001....
Hereditary.Das.Vermaechtnis....
Jigsaw.2017.German.DL.1080p....
The.Strangers.Opfernacht.UNR...
Toedlicher.Anruf.2008.German...
Toedlicher.Charme.1990.Germa...
Toedlicher.Irrtum.1970.Germa...
Tanz.der.Teufel.2.1987.Remas...
To.Save.a.Life.2009.German.D...
Clockers.1995.German.DL.1080...
Toedliche.Fragen.1990.German...
Toedliche.Umarmung.1979.Germ...
MotoGP.Moto2.Moto3.Saison.20...
Meerjungfrauen.kuessen.besse...
Meerjungfrauen.kuessen.besse...
Mondsuechtig.1987.German.DL....
Mondsuechtig.1987.German.720...

 
 
Ein.wahres.Verbrechen.1999.German.DL.1080p.BluRay.x264-CONTRiBUTiON

Jahr: 1999
Genre: Drama, Krimi
Sprache: Deutsch AC3 | Englisch DTS
Laufzeit: 2h 7mn
Bitrate: 11.1 Mbps
Format: MKV
Größe: 9.84 GiB
Release:

Beschreibung:

Heute hat der ausgebrannte Reporter Steve Everett wirklich nichts zu lachen: Erst ein nicht geglückter One Night Stand mit einer jungen Kollegin, dann drohender Jobverlust, später hitzige eheliche Verantwortungsgefechte um das gemeinsame Kind und schließlich noch der Rückfall in den Alkohol. Wenigstens sein untrüglicher Spürsinn läßt Everett nicht im Stich. Im Verlauf einer Routinereportage über die letzten Stunden eines zum Tode verurteilten Mörders kommt er einem Justizirrtum auf die Spur und bringt sich dabei selbst in höchste Lebensgefahr.



Format                                   : Matroska
Format version                           : Version 2
File size                                : 9.84 GiB
Duration                                 : 2h 7mn
Overall bit rate                         : 11.1 Mbps
Writing application                      : mkvmerge v6.6.0 ('The Edge Of The In Between') built on Dec 1 2013 17:55:00
Writing library                          : libebml v1.3.0 + libmatroska v1.4.1

Video
ID                                       : 1
Format                                   : AVC
Format/Info                              : Advanced Video Codec
Format profile                           : High@L4.1
Format settings, CABAC                   : Yes
Format settings, ReFrames                : 4 frames
Codec ID                                 : V_MPEG4/ISO/AVC
Duration                                 : 2h 7mn
Bit rate                                 : 8 911 Kbps
Width                                    : 1 920 pixels
Height                                   : 1 080 pixels
Display aspect ratio                     : 16:9
Frame rate mode                          : Constant
Frame rate                               : 23.976 fps
Color space                              : YUV
Chroma subsampling                       : 4:2:0
Bit depth                                : 8 bits
Scan type                                : Progressive
Bits/(Pixel*Frame)                       : 0.179
Stream size                              : 7.73 GiB (79%)
Writing library                          : x264 core 148 r2692 64f4e24
Encoding settings                        : cabac=1 / ref=4 / deblock=1:-3:-3 / analyse=0x3:0x133 / me=umh / subme=8 / psy=1 / psy_rd=1.00:0.15 / mixed_ref=1 / me_range=16 / chroma_me=1 / trellis=1 / 8x8dct=1 / cqm=0 / deadzone=21,11 / fast_pskip=0 / chroma_qp_offset=-3 / threads=12 / lookahead_threads=2 / sliced_threads=0 / nr=0 / decimate=1 / interlaced=0 / bluray_compat=0 / constrained_intra=0 / bframes=3 / b_pyramid=2 / b_adapt=2 / b_bias=0 / direct=3 / weightb=1 / open_gop=0 / weightp=2 / keyint=240 / keyint_min=24 / scenecut=40 / intra_refresh=0 / rc_lookahead=50 / rc=2pass / mbtree=1 / bitrate=8911 / ratetol=1.0 / qcomp=0.60 / qpmin=0 / qpmax=69 / qpstep=4 / cplxblur=20.0 / qblur=0.5 / ip_ratio=1.40 / aq=1:1.00
Language                                 : English
Default                                  : Yes
Forced                                   : No

Audio #1
ID                                       : 2
Format                                   : AC-3
Format/Info                              : Audio Coding 3
Mode extension                           : CM (complete main)
Format settings, Endianness              : Big
Codec ID                                 : A_AC3
Duration                                 : 2h 7mn
Bit rate mode                            : Constant
Bit rate                                 : 640 Kbps
Channel(s)                               : 6 channels
Channel positions                        : Front: L C R, Side: L R, LFE
Sampling rate                            : 48.0 KHz
Bit depth                                : 16 bits
Compression mode                         : Lossy
Stream size                              : 583 MiB (6%)
Language                                 : German
Default                                  : Yes
Forced                                   : No

Audio #2
ID                                       : 3
Format                                   : DTS
Format/Info                              : Digital Theater Systems
Mode                                     : 16
Format settings, Endianness              : Big
Codec ID                                 : A_DTS
Duration                                 : 2h 7mn
Bit rate mode                            : Constant
Bit rate                                 : 1 509 Kbps
Channel(s)                               : 6 channels
Channel positions                        : Front: L C R, Side: L R, LFE
Sampling rate                            : 48.0 KHz
Bit depth                                : 24 bits
Compression mode                         : Lossy
Stream size                              : 1.34 GiB (14%)
Language                                 : English
Default                                  : Yes
Forced                                   : No


Download:
Share Online Share OnlineShare OnlineShare Online
 

Kommentare