HD-AREA wünscht Euch eine besinnliche Weihnachtszeit ;)

DNS SERVER AENDERNum der staatlichen Zensur zu umgehen. Sollten wir von eurem Provider geseprrt werden, nutzt den TOR BROWSER oder ändert euren DNS SERVER.

Filmwünsche können bei uns im Forum abgegeben werden

Wir Speichern Nicht




 
 
 
Top Releases
The.Last.Movie.Star.2017.Ger...
The.Equalizer.2.2018.German....
The.Last.Movie.Star.2017.Ger...
BlacKkKlansman.2018.MULTi.CO...
Black.47.2018.German.DTS.HD....
Black.47.2018.MULTi.COMPLETE...
BlacKkKlansman.2018.German.D...
BlacKkKlansman.2018.German.7...
The.Last.Movie.Star.2017.Ger...
Black.47.2018.German.720p.Bl...

Cinedubs
Night.School.2018.GERMAN.DL....
Night.School.2018.GERMAN.DL....
Gaensehaut.2.Gruseliges.Hall...
Gaensehaut.2.Gruseliges.Hall...
Unknown.User.2.Dark.Web.Germ...
Unknown.User.2.Dark.Web.Germ...
Peppermint.Angel.of.Vengeanc...
Peppermint.Angel.of.Vengeanc...
Venom.German.DL.AC3.Dubbed.1...
Venom.2018.German.AC3D.5.1.D...

Neuerscheinungen 2017-18
Gotti.A.Real.American.Godfat...
Mandy.the.Haunted.Doll.2018....
Mandy.the.Haunted.Doll.2018....
Mandy.the.Haunted.Doll.2018....
Mandy.the.Haunted.Doll.Mandy...
Wildling.2018.German.DL.1080...
Wildling.2018.German.720p.Bl...
Breaking.In.2018.German.DTS....
Breaking.In.2018.German.DTS....
I.Still.See.You.Sie.lassen.d...

XXX
FatManFuck.17.09.28.Savannah...
Kemaco.29.XXX.720p.WEBRip.MP...
LANewGirl.18.11.25.Hanna.Ret...
MatureNL.18.11.08.Alexa.Blun...
LANewGirl.18.11.27.Kinsley.M...
LittleCapriceDreams.18.11.23...
MatureNL.18.11.13.Beau.Diamo...
MatureNL.18.11.16.Cassie.Ell...
KimberLeeLive.18.12.01.Teach...
LivingWithAPornstar.18.12.03...
MatureNL.18.11.06.Allison.An...
KimberLeeLive.18.11.24.Am.I....
MatureNL.18.11.02.Gina.Feroc...
Killergram.18.12.01.Karina.G...
Hitzefrei.18.10.31.Nina.Vega...
Lesbea.18.12.01.Ashely.Ocean...
LittleCapriceDreams.18.12.01...
FatManFuck.17.10.02.Lauren.C...
LesbianX.18.12.01.Sinn.Sage....
HeavyOnHotties.18.11.30.Tayl...

3D
Gans.im.Glueck.3D.2018.MULTi...
The.Art.of.Flight.3D.2011.Ge...
The.End.Of.The.World.3D.2010...
The.First.Avenger.Civil.War....
Die.Unglaublichen.2.2018.3D....
Skyscraper.3D.2018.MULTi.COM...
Ant-Man.And.The.Wasp.3D.2018...
Ant.Man.and.the.Wasp.3D.2018...
Die.Unglaublichen.2.3D.2018....
Die.Unglaublichen.2.2018.3D....
Die.Unglaublichen.2.2018.3D....
Sharknado.6.The.Last.One.3D....
Deep.Kleine.Helden.der.Tiefs...
Deep.3D.2017.MULTI.COMPLETE....
Detective.Dee.und.die.Legend...

Old_Stuff
Akte.X.S04.German.DTS.DL.108...
Akte.X.S03.German.DTS.DL.108...
Dunkirk.1958.COMPLETE.BLURAY...
Das.Wunder.von.Manhattan.199...
The.Amazing.Spiderman.2.Rise...
Rise.of.the.Predator.2014.Ge...
Detective.Dee.und.das.Geheim...
Detective.Dee.Und.Der.Fluch....
Ghost.Rider.Spirit.of.Vengea...
Species.IV.Das.Erwachen.2007...
Species.IV.Das.Erwachen.2007...
Hotel.Transsilvanien.2012.Ge...
The.Dead.2010.German.DL.1080...
The.Dead.2.India.2013.German...
Britney.Spears.Live.The.Femm...

Filme
Mission.Impossible.Fallout.2...
Swedish.Dicks.S02.German.DD2...
Vikings.S05.German.DD+51.DL....
Vikings.S05.German.DD+51.DL....
Halloween.II.1981.Remastered...
Ich.Einfach.unverbesserlich....
Category.7.Das.Ende.der.Welt...
Heut.gehn.wir.bummeln.1949.G...
Red.Scorpion.UNRATED.German....
Redbelt.German.DL.1080p.BluR...
Reflecting.Skin.Schrei.in.de...
Regression.2015.German.DL.10...
Red.White.and.Blue.2010.Germ...
Ravenous.1999.GERMAN.AC3D.DL...
Meg.2018.German.DL.2160p.UHD...
Rare.Exports.German.1080p.Bl...
Raze.Fight.or.Die.2013.Germa...
Ready.for.Hangover.2009.Germ...
Das.Wunder.von.Manhattan.194...
Der.Ghostwriter.2010.German....
Ranchero.2008.German.DL.1080...
Rebellion.2011.German.DL.108...
Rammbock.Berlin.Undead.2010....
Miami.Vice.S01.Uncut.German....

 
 
Jurassic.Park.1993.German.AC3.DL.1080p.Bluray.x265.FuN

Jahr: 1993
Genre: Abenteuer, Sci-Fi, Thriller
Sprache: Deutsch AC3 | Englisch AC3
Laufzeit: 2h 6mn
Bitrate: 3 588 Kbps
Format: MKV
Größe: 3.17 GiB
Release:

Beschreibung:

John Hammond, ein reicher Unternehmer, errichtet auf einer einsamen Insel heimlich einen Erlebnispark, der für seine Gäste außergewöhnliche Attraktionen bereithält. Es ist gelungen, aus einer urzeitlichen DNA leibhaftige Dinosaurier ins Leben zu rufen. Bevor der Park für das Publikum geöffnet wird, lädt er einen führenden Paläontologen, dessen Freundin, eine Paläobotanikerin, einen berühmten Mathematiker und seine beiden wißbegierigen Enkel ein, um die besorgten Investoren zu beruhigen. Aber der Besuch seiner ersten Gäste verläuft alles andere als nach Plan. Die urzeitlichen Monster brechen aus, entziehen sich jeder Kontrolle und starten eine mörderische Jagd auf ihre Schöpfer ...



Complete name                            : Jurassic.Park.low.x265.mkv
Format                                   : Matroska
Format version                           : Version 4 / Version 2
File size                                : 3.17 GiB
Duration                                 : 2h 6mn
Overall bit rate                         : 3 588 Kbps
Encoded date                             : UTC 2018-10-08 08:38:14
Writing application                      : mkvmerge v10.0.0 ('To Drown In You') 64bit
Writing library                          : libebml v1.3.4 + libmatroska v1.4.5
DURATION                                 : 02:01:34.284000000
NUMBER_OF_FRAMES                         : 1417
NUMBER_OF_BYTES                          : 4785602
_STATISTICS_WRITING_APP                  : mkvmerge v10.0.0 ('To Drown In You') 64bit
_STATISTICS_WRITING_DATE_UTC             : 2018-10-08 08:38:14
_STATISTICS_TAGS                         : BPS DURATION NUMBER_OF_FRAMES NUMBER_OF_BYTES

Video
ID                                       : 1
Format                                   : HEVC
Format/Info                              : High Efficiency Video Coding
Format profile                           : Main@L4.0
Codec ID                                 : V_MPEGH/ISO/HEVC
Duration                                 : 2h 6mn
Bit rate                                 : 2 749 Kbps
Width                                    : 1 920 pixels
Height                                   : 1 040 pixels
Display aspect ratio                     : 1.85:1
Frame rate mode                          : Constant
Frame rate                               : 23.976 fps
Color space                              : YUV
Chroma subsampling                       : 4:2:0
Bit depth                                : 8 bits
Bits/(Pixel*Frame)                       : 0.057
Stream size                              : 2.43 GiB (77%)
Writing library                          : x265 2.8:[Windows][GCC 7.1.0][64 bit] 8bit+10bit+12bit
Encoding settings                        : cpuid=1111039 / frame-threads=3 / numa-pools=8 / wpp / no-pmode / no-pme / psnr / no-ssim / log-level=2 / input-csp=1 / input-res=1920x1040 / interlace=0 / total-frames=0 / level-idc=0 / high-tier=1 / uhd-bd=0 / ref=3 / no-allow-non-conformance / no-repeat-headers / annexb / no-aud / no-hrd / info / hash=0 / no-temporal-layers / open-gop / min-keyint=24 / keyint=240 / gop-lookahead=0 / bframes=4 / b-adapt=2 / b-pyramid / bframe-bias=0 / rc-lookahead=20 / lookahead-slices=6 / scenecut=40 / radl=0 / no-intra-refresh / ctu=64 / min-cu-size=8 / no-rect / no-amp / max-tu-size=32 / tu-inter-depth=1 / tu-intra-depth=1 / limit-tu=0 / rdoq-level=0 / dynamic-rd=0.00 / no-ssim-rd / signhide / no-tskip / nr-intra=0 / nr-inter=0 / no-constrained-intra / no-strong-intra-smoothing / max-merge=2 / limit-refs=3 / no-limit-modes / me=1 / subme=2 / merange=57 / temporal-mvp / weightp / no-weightb / no-analyze-src-pics / deblock=0:0 / no-sao / no-sao-non-deblock / rd=3 / no-early-skip / rskip / no-fast-intra / no-tskip-fast / no-cu-lossless / no-b-intra / no-splitrd-skip / rdpenalty=0 / psy-rd=0.00 / psy-rdoq=0.00 / no-rd-refine / no-lossless / cbqpoffs=0 / crqpoffs=0 / rc=crf / crf=23.0 / qcomp=0.60 / qpstep=4 / stats-write=0 / stats-read=0 / ipratio=1.40 / pbratio=1.30 / aq-mode=1 / aq-strength=0.00 / cutree / zone-count=0 / no-strict-cbr / qg-size=32 / no-rc-grain / qpmax=69 / qpmin=0 / no-const-vbv / sar=1 / overscan=0 / videoformat=5 / range=0 / colorprim=1 / transfer=1 / colormatrix=1 / chromaloc=0 / display-window=0 / max-cll=0,0 / min-luma=0 / max-luma=255 / log2-max-poc-lsb=8 / vui-timing-info / vui-hrd-info / slices=1 / no-opt-qp-pps / no-opt-ref-list-length-pps / no-multi-pass-opt-rps / scenecut-bias=0.05 / no-opt-cu-delta-qp / no-aq-motion / no-hdr / no-hdr-opt / no-dhdr10-opt / no-idr-recovery-sei / analysis-reuse-level=5 / scale-factor=0 / refine-intra=0 / refine-inter=0 / refine-mv=0 / no-limit-sao / ctu-info=0 / no-lowpass-dct / refine-mv-type=0 / copy-pic=1 / max-ausize-factor=1.0 / no-dynamic-refine / no-single-sei
Default                                  : Yes
Forced                                   : No
DURATION                                 : 02:06:36.548000000
NUMBER_OF_FRAMES                         : 182135
NUMBER_OF_BYTES                          : 2667143514
_STATISTICS_WRITING_APP                  : mkvmerge v10.0.0 ('To Drown In You') 64bit
_STATISTICS_WRITING_DATE_UTC             : 2018-10-08 08:38:14
_STATISTICS_TAGS                         : BPS DURATION NUMBER_OF_FRAMES NUMBER_OF_BYTES

Audio #1
ID                                       : 2
Format                                   : AC-3
Format/Info                              : Audio Coding 3
Mode extension                           : CM (complete main)
Format settings, Endianness              : Big
Codec ID                                 : A_AC3
Duration                                 : 2h 6mn
Bit rate mode                            : Constant
Bit rate                                 : 384 Kbps
Channel(s)                               : 6 channels
Channel positions                        : Front: L C R, Side: L R, LFE
Sampling rate                            : 48.0 KHz
Bit depth                                : 16 bits
Compression mode                         : Lossy
Delay relative to video                  : -5ms
Stream size                              : 348 MiB (11%)
Title                                    : Surround
Language                                 : German
Default                                  : Yes
Forced                                   : No
DURATION                                 : 02:06:36.576000000
NUMBER_OF_FRAMES                         : 237393
NUMBER_OF_BYTES                          : 364635648
_STATISTICS_WRITING_APP                  : mkvmerge v10.0.0 ('To Drown In You') 64bit
_STATISTICS_WRITING_DATE_UTC             : 2018-10-08 08:38:14
_STATISTICS_TAGS                         : BPS DURATION NUMBER_OF_FRAMES NUMBER_OF_BYTES

Audio #2
ID                                       : 3
Format                                   : AC-3
Format/Info                              : Audio Coding 3
Mode extension                           : CM (complete main)
Format settings, Endianness              : Big
Codec ID                                 : A_AC3
Duration                                 : 2h 6mn
Bit rate mode                            : Constant
Bit rate                                 : 384 Kbps
Channel(s)                               : 6 channels
Channel positions                        : Front: L C R, Side: L R, LFE
Sampling rate                            : 48.0 KHz
Bit depth                                : 16 bits
Compression mode                         : Lossy
Delay relative to video                  : -5ms
Stream size                              : 348 MiB (11%)
Title                                    : Surround
Language                                 : English
Default                                  : No
Forced                                   : No
DURATION                                 : 02:06:36.576000000
NUMBER_OF_FRAMES                         : 237393
NUMBER_OF_BYTES                          : 364635648
_STATISTICS_WRITING_APP                  : mkvmerge v10.0.0 ('To Drown In You') 64bit
_STATISTICS_WRITING_DATE_UTC             : 2018-10-08 08:38:14
_STATISTICS_TAGS                         : BPS DURATION NUMBER_OF_FRAMES NUMBER_OF_BYTES


Download:
Share Online Share OnlineShare OnlineShare Online
 

Kommentare