DNS SERVER AENDERNum der staatlichen Zensur zu umgehen. Sollten wir von eurem Provider geseprrt werden, nutzt den TOR BROWSER oder ändert euren DNS SERVER.

Filmwünsche können bei uns im Forum abgegeben werden

Wir Speichern Nicht




 
 
 
Top Releases
Outrage.Coda.GERMAN.2017.DL....
Outrage.Coda.GERMAN.2017.DL....
Solo.A.Star.Wars.Story.2018....
Early.Man.Steinzeit.bereit.2...
The.Kings.Ring.Die.Letzte.Sc...
Bleach.2018.German.DL.AC3.10...
Bleach.2018.German.DL.AC3.72...
Solo.A.Star.Wars.Story.2018....
Vorbilder.aka.Role.Models.UN...
Freddy.Eddy.2016.German.AC3....

Cinedubs
The.First.Purge.German.DL.AC...
The.First.Purge.German.DL.AC...
Hotel.Transsilvanien.3.Ein.M...
Hotel.Transsilvanien.3.Ein.M...
Meg.German.DL.AC3.Dubbed.720...
Meg.German.DL.AC3.Dubbed.108...
Jurassic.World.2.Das.gefalle...
Mission.Impossible.Fallout.G...
Mission.Impossible.Fallout.G...
Sicario.2.2018.German.AC3MD....

Neuerscheinungen 2017-18
Hes.Out.There.2018.GERMAN.DL...
Hes.Out.There.2018.GERMAN.DL...
Weltengaenger.2018.GERMAN.10...
Weltengaenger.2018.GERMAN.72...
Weltengaenger.2018.GERMAN.DU...
Zu.neuen.Ufern.1937.GERMAN.C...
Violet.Evergarden.Vol1.D1+2....
Robin.Hood.2010.MULTi.COMPLE...
Das.Blutbiest.The.Blood.Beas...
Der.Blaufuchs.1938.GERMAN.CO...

XXX
Boober.2.XXX.iNTERNAL.720p.W...
CherryPimps.18.09.10.Krissy....
BrownBunnies.18.09.07.Honey....
ATKHairy.18.09.09.Andy.Moon....
BrazzersExxtra.18.09.10.Lela...
BrattySis.18.09.07.Ashely.Oc...
WankItNow.17.10.03.Zoe.Page....
Beat.My.Beanbag.XXX.1080p.WE...
BrickYates.18.08.28.Alexis.C...
WoodmanCastingX.15.12.29.Ros...
Bang.RealTeens.18.09.10.Bamb...
WankItNow.17.10.04.Charlie.R...
ChicasLoca.18.09.10.Andreina...
ClaudiaMarie.18.09.07.Teen.D...
Babes.18.09.07.Misty.Stone.T...
WoodmanCastingX.15.12.05.Ley...
Babes.18.09.09.Gianna.Dior.B...
BrazzersExxtra.18.09.07.Vien...
WoodmanCastingX.15.07.26.Ann...
BadDaddyPOV.18.09.07.Sadie.H...

3D
Die.Biene.Maja.2.Die.Honigsp...
Avengers.Infinity.War.3D.201...
Avengers.Infinity.War.3D.201...
Rampage.Big.Meets.Bigger.3D....
Rampage.Big.Meets.Bigger.3D....
Rampage.Big.Meets.Bigger.3D....
Winter.Games.3D.2013.DUAL.CO...
Tomb.Raider.3D.2018.German.7...
Rampage.Big.Meets.Bigger.3D....
Rampage.Big.Meets.Bigger.3D....
Tomb.Raider.3D.2018.MULTi.CO...
Pacific.Rim.Uprising.3D.2018...
Ready.Player.One.3D.2018.Ger...
Rampage.-.Big.Meets.Bigger.2...
Ready.Player.One.2018.3D.HOU...

Old_Stuff
How.I.Met.Your.Mother.S02.Ge...
Akte.X.S01.German.DTS.DL.108...
Den.Himmel.gibts.echt.DL.108...
Vikings.S02.German.DL.1080p....
Be.Kind.Rewind.Abgedreht.200...
Be.Kind.Rewind.Abgedreht.200...
Dracula.The.Dark.Lord.2012.G...
21.2008.German.DL.1080p.BluR...
Achtung.fertig.WK.Swissgerma...
The.Ouija.Exorcism.2015.MULT...
Meine.liebe.Rabenmutter.germ...
Da.Vincis.Demons.S01.Complet...
Eragon.Das.Vermaechtnis.der....
Adele.und.das.Geheimnis.des....
Die.fabelhafte.Welt.der.Amel...

Filme
Quiz.Show.1994.German.AC3D.7...
Vierzehn.Jahre.Sing-Sing.194...
Legends.of.Tomorrow.S03.Germ...
Draft.Day.2014.German.DL.108...
Better.Call.Saul.S04.German....
Better.Call.Saul.S04.German....
Hard.to.Fight.2004.German.AC...
Im.Land.der.Dinosaurier.2014...
Leon.der.Profi.1994.German.D...
Sie.leben.1988.Collectors.Ed...
Die.Maske.des.Fu-Manchu.1932...
Rapid.Fire.Uncut.1992.German...
Robin.Hood.2010.UNRATED.Germ...
Elementary.S06.GERMAN.DUBBED...
Timeless.S02.COMPLETE.German...
Timeless.S02.COMPLETE.German...
Timeless.S01.COMPLETE.German...
Timeless.S01.COMPLETE.German...
Fear.The.Walking.Dead.S04.Ge...
Fear.The.Walking.Dead.S04.Ge...
Modern.Family.S08.GERMAN.DUB...
Succession.S01.German.DD51.S...
Succession.S01.German.DD51.S...
Crazy.Ex.Girlfriend.S03.Germ...

 
 
League.of.Gods.2016.German.AC3.1080p.WEB-DL.x265-FuN
Jahr: 2016
Genre: Action, Fantasy
Sprache: Deutsch AC3
Laufzeit: 1h 49mn
Bitrate: 3 345 Kbps
Format: MKV
Größe: 2.55 GiB
Release:

Beschreibung:

Der mächtige König Zhou von Shang (Tony Leung Ka Fai) wird von seiner Geliebten Daji (Bingbing Fan) verhext, denn sie ist in Wirklichkeit ein getarnter Geist. Unter ihrem Einfluss wird Zhou zum grausamen Tyrann, der sein Volk unterdrückt und alle, die sich gegen ihn stellen, verfolgt. Doch Ji Fa und sein Stratege Jiang Ziya (Jet Li) vom Königreich Zhou ziehen mit ihrer Armee los, um den Frieden wiederherzustellen. In der Schlacht werden dank Magie Dämonen und Geister beschworen, aber auch sie selbst werden mit göttlichen Kräften ausgestattet.




Format                                   : Matroska
Format version                           : Version 4 / Version 2
File size                                : 2.55 GiB
Duration                                 : 1h 49mn
Overall bit rate                         : 3 345 Kbps
Encoded date                             : UTC 2018-08-31 01:36:24
Writing application                      : HandBrake 20180822104100-b703c42-master 2018082301
Writing library                          : Lavf58.12.100

Video
ID                                       : 1
Format                                   : HEVC
Format/Info                              : High Efficiency Video Coding
Format profile                           : [email protected]
Codec ID                                 : V_MPEGH/ISO/HEVC
Duration                                 : 1h 49mn
Bit rate                                 : 2 894 Kbps
Width                                    : 1 920 pixels
Height                                   : 808 pixels
Display aspect ratio                     : 2.40:1
Frame rate mode                          : Constant
Frame rate                               : 24.000 fps
Color space                              : YUV
Chroma subsampling                       : 4:2:0
Bit depth                                : 8 bits
Bits/(Pixel*Frame)                       : 0.078
Stream size                              : 2.20 GiB (87%)
Writing library                          : x265 2.8:[Windows][GCC 7.1.0][64 bit] 8bit+10bit+12bit
Encoding settings                        : cpuid=1111039 / frame-threads=3 / numa-pools=8 / wpp / no-pmode / no-pme / no-psnr / no-ssim / log-level=2 / input-csp=1 / input-res=1920x808 / interlace=0 / total-frames=0 / level-idc=0 / high-tier=1 / uhd-bd=0 / ref=3 / no-allow-non-conformance / no-repeat-headers / annexb / no-aud / no-hrd / info / hash=0 / no-temporal-layers / open-gop / min-keyint=24 / keyint=240 / gop-lookahead=0 / bframes=4 / b-adapt=2 / b-pyramid / bframe-bias=0 / rc-lookahead=20 / lookahead-slices=5 / scenecut=40 / radl=0 / no-intra-refresh / ctu=64 / min-cu-size=8 / no-rect / no-amp / max-tu-size=32 / tu-inter-depth=1 / tu-intra-depth=1 / limit-tu=0 / rdoq-level=0 / dynamic-rd=0.00 / no-ssim-rd / signhide / no-tskip / nr-intra=0 / nr-inter=0 / no-constrained-intra / no-strong-intra-smoothing / max-merge=2 / limit-refs=3 / no-limit-modes / me=1 / subme=2 / merange=57 / temporal-mvp / weightp / no-weightb / no-analyze-src-pics / deblock=0:0 / no-sao / no-sao-non-deblock / rd=3 / no-early-skip / rskip / no-fast-intra / no-tskip-fast / no-cu-lossless / no-b-intra / no-splitrd-skip / rdpenalty=0 / psy-rd=2.00 / psy-rdoq=0.00 / no-rd-refine / no-lossless / cbqpoffs=0 / crqpoffs=0 / rc=crf / crf=23.0 / qcomp=0.60 / qpstep=4 / stats-write=0 / stats-read=0 / ipratio=1.40 / pbratio=1.30 / aq-mode=1 / aq-strength=1.00 / cutree / zone-count=0 / no-strict-cbr / qg-size=32 / no-rc-grain / qpmax=69 / qpmin=0 / no-const-vbv / sar=1 / overscan=0 / videoformat=5 / range=0 / colorprim=1 / transfer=1 / colormatrix=1 / chromaloc=0 / display-window=0 / max-cll=0,0 / min-luma=0 / max-luma=255 / log2-max-poc-lsb=8 / vui-timing-info / vui-hrd-info / slices=1 / no-opt-qp-pps / no-opt-ref-list-length-pps / no-multi-pass-opt-rps / scenecut-bias=0.05 / no-opt-cu-delta-qp / no-aq-motion / no-hdr / no-hdr-opt / no-dhdr10-opt / no-idr-recovery-sei / analysis-reuse-level=5 / scale-factor=0 / refine-intra=0 / refine-inter=0 / refine-mv=0 / no-limit-sao / ctu-info=0 / no-lowpass-dct / refine-mv-type=0 / copy-pic=1 / max-ausize-factor=1.0 / no-dynamic-refine / no-single-sei
Default                                  : Yes
Forced                                   : No
DURATION                                 : 01:49:02.214000000

Audio
ID                                       : 2
Format                                   : AC-3
Format/Info                              : Audio Coding 3
Mode extension                           : CM (complete main)
Format settings, Endianness              : Big
Codec ID                                 : A_AC3
Duration                                 : 1h 49mn
Bit rate mode                            : Constant
Bit rate                                 : 384 Kbps
Channel(s)                               : 2 channels
Channel positions                        : Front: L R
Sampling rate                            : 48.0 KHz
Bit depth                                : 16 bits
Compression mode                         : Lossy
Delay relative to video                  : -5ms
Stream size                              : 299 MiB (11%)
Title                                    : Stereo
Language                                 : German
Default                                  : Yes
Forced                                   : No
DURATION                                 : 01:49:02.112000000

Text #1
ID                                       : 3
Format                                   : ASS
Codec ID                                 : S_TEXT/ASS
Codec ID/Info                            : Advanced Sub Station Alpha
Compression mode                         : Lossless
Language                                 : German
Default                                  : No
Forced                                   : No
DURATION                                 : 01:48:55.046000000

Text #2
ID                                       : 4
Format                                   : ASS
Codec ID                                 : S_TEXT/ASS
Codec ID/Info                            : Advanced Sub Station Alpha
Compression mode                         : Lossless
Language                                 : English
Default                                  : No
Forced                                   : No
DURATION                                 : 01:48:53.838000000



Download:
Share Online Share OnlineShare OnlineShare Online
 

Kommentare