Filecrypt zeigt vereinzelt Files als "n/a". Die Downloads sind trotzdem komplett.

DNS SERVER AENDERNum der staatlichen Zensur zu umgehen. Sollten wir von eurem Provider geseprrt werden, nutzt den TOR BROWSER oder ändert euren DNS SERVER.

Filmwünsche können bei uns im Forum abgegeben werden

Wir Speichern Nicht




 
 
 
Top Releases
Mandy.2018.MULTi.COMPLETE.BL...
Zoe.2018.German.AC3.DL.1080p...
Herrliche.Zeiten.2018.German...
Skyscraper.2018.German.AC3.D...
Mandy.2018.German.720p.BluRa...
Mandy.2018.German.DL.1080p.B...
Die.Farbe.des.Horizonts.2018...
Die.Farbe.des.Horizonts.2018...
Die.Farbe.des.Horizonts.2018...
Predestination.2014.German.A...

Cinedubs
A.Star.Is.Born.German.DL.AC3...
A.Star.Is.Born.German.DL.AC3...
Mission.Impossible.Fallout.G...
Mission.Impossible.Fallout.G...
Sicario.2.2018.German.DL.AC3...
Juliet.Naked.2018.GERMAN.DL....
Juliet.Naked.2018.GERMAN.DL....
10x10.2018.German.AC3D.DL.10...
Predator.Upgrade.German.DL.A...
Predator.Upgrade.German.DL.A...

Neuerscheinungen 2017-18
O.Sexuelles.Verlangen.2017.D...
O.Sexuelles.Verlangen.2017.G...
O.Sexuelles.Verlangen.2017.G...
Christmas.With.A.View.2018.G...
Christmas.With.A.View.2018.G...
Our.Evil.2017.GERMAN.1080p.B...
Our.Evil.2017.GERMAN.720p.Bl...
Bent.Korruption.kennt.keine....
Bent.Korruption.kennt.keine....
Slender.Man.German.DL.AC3.Du...

XXX
Teens.On.Sex.Carnage.9.XXX.1...
Teens.On.Sex.Carnage.9.XXX.7...
StepSiblingsCaught.18.10.29....
SweetSinner.18.10.30.Syren.D...
Shoplyfter.18.10.31.Scarlett...
VickyAtHome.18.10.24.Woke.Up...
SweetheartVideo.18.10.29.Apr...
The.Flesh.Game.XXX.1080p.WEB...
SneakySex.18.10.31.Bonnie.Ro...
TeensLikeItBig.18.10.28.Rebe...
GirlsDoPorn.E475.18.Years.Ol...
LustyGrandmas.18.02.01.Malya...
The.Flesh.Game.XXX.720p.WEBR...
Shinnyu.Shain.No.Oshigoto.10...
GirlsDoPorn.E472.20.Years.Ol...
TeenFidelity.E341.Kenzie.Kai...
VIPissy.18.10.29.Claudia.Mac...
LustyGrandmas.18.01.25.Mimi....
Spizoo.18.10.29.Infexxted.XX...
TeenPies.18.10.31.Avery.Moon...

3D
Skyscraper.3D.2018.MULTi.COM...
Ant-Man.And.The.Wasp.3D.2018...
Ant.Man.and.the.Wasp.3D.2018...
Die.Unglaublichen.2.3D.2018....
Die.Unglaublichen.2.2018.3D....
Die.Unglaublichen.2.2018.3D....
Sharknado.6.The.Last.One.3D....
Deep.Kleine.Helden.der.Tiefs...
Deep.3D.2017.MULTI.COMPLETE....
Detective.Dee.und.die.Legend...
Detective.Dee.und.die.Legend...
Skyscraper.3D.German.DL.AC3....
Ant-Man.and.the.Wasp.2018.3D...
Jurassic.World.Das.gefallene...
Jurassic.World.Das.gefallene...

Old_Stuff
Detective.Dee.und.das.Geheim...
Detective.Dee.Und.Der.Fluch....
Ghost.Rider.Spirit.of.Vengea...
Species.IV.Das.Erwachen.2007...
Species.IV.Das.Erwachen.2007...
Hotel.Transsilvanien.2012.Ge...
The.Dead.2010.German.DL.1080...
The.Dead.2.India.2013.German...
Britney.Spears.Live.The.Femm...
Buffy.The.Vampire.Slayer.199...
IMAX.Ride.Around.The.World.2...
Schimanski.-.Duisburg.Ruhror...
Akte.X.S02.German.DTS.DL.108...
How.I.Met.Your.Mother.S02.Ge...
Akte.X.S01.German.DTS.DL.108...

Filme
Die.Truman.Show.1998.German....
Crocodile.Dundee.Extended.Cu...
Valley.Girl.Das.Maedchen.und...
TiMER.2009.German.DL.1080p.B...
Time.to.Kill.1989.German.108...
Time.Rush.2016.German.DL.108...
Time.for.Crime.Zeit.fuer.Bet...
Time.Bandits.German.1981.108...
Wrong.Side.of.Town.2010.Germ...
Time.and.Tide.2000.German.10...
Tigerman.1990.German.DL.1080...
Chinesisches.Roulette.1976.G...
Falling.Up.Liebe.oeffnet.Tue...
Spider-Man.2002.UHD2BD.DL.10...
Der.grosse.Trip.Wild.2014.Ge...
Untote.wie.wir.Man.ist.so.to...
Cliffhanger.Nur.die.Starken....
Moderne.Zeiten.1936.German.D...
Der.Krieg.der.Knoepfe.1962.U...
Rote.Laterne.1991.German.108...
The.Good.Doctor.S02.German.D...
The.Good.Doctor.S02.German.D...
Das.Leben.Ein.Sechserpack.19...
Thoda.Pyaar.Thoda.2008.Germa...

 
 
Avengers.Infinity.War.3D.2018.German.DL.1080p.BluRay.x264-STEREOSCOPiC

Jahr: 2018
Genre: Fantasy, Abenteuer, Action, Comicverfilmung, Science Fiction
Sprache: Deutsch AC3 | Englisch DTS
Laufzeit: 2h 29mn
Bitrate: 6 555 Kbps
Format: MKV
Größe: 6.84 GiB
Release:

Beschreibung:

Nachdem die Gemeinschaft der Avengers unter dem Druck des Sokovia Abkommens zerbrach, kämpfen Captain America Steve Rogers (C. Evans) und Iron Man Tony Stark (R. Downey Jr.) sowie ihre jeweiligen Gefolgsleute auf unterschiedlichen Seiten des Gesetzes, aber immer noch für das Gute in der Welt. Doch während sich die Superhelden auf der Erde gegenseitig bekämpfen, ist es dem Titanen Thanos (J. Brolin) gelungen den Orb, den Gedanken Stein, den Äther, den Tesserakt und das Auge von Agamotto in seinen Besitz zu bringen. Lediglich der bis dahin fehlende Seelen Stein gilt immer noch als verschollen und Thanos ist bereit Welten zu zerstören, um ihn in seinen Besitz zu bringen. Gelingt es ihm alles sechs Infinity Steine auf seinem Handschuh zu vereinen, würde er zum Meister von Zeit, Raum, Seele, Verstand, Macht und Realität werden und das Universum unterjochen.
Als die Avengers schließlich die nahende Bedrohung erkennen, ist es schon fast zu spät und um überhaupt den Hauch einer Chance gegen die Armeen von Thanos zu haben, sind Iron Man, Captain America, Hulk (M. Ruffalo), Thor (C. Hemsworth), Natasha Romanoff (S. Johansson), Spider-Man (T. Holland) und die anderen Rächer nicht nur gezwungen ihre Differenzen beizulegen, sondern auch auf Unterstützung aus sämtlichen Galaxien und Realitäten zu hoffen. Und glücklicherweise sind Doctor Strange (B. Cumberbatch), sowie Star-Lord Peter Quill (C. Pratt) und seine Guardians schnell zur Stelle um das Universum zu retten. Doch wird die intergalaktische Vereinigung stark genug sein, sich dieser Gefahr zu widersetzen?

 

 



Complete name                            : Avengers.Infinity.War.3D.2018.German.DL.1080p.BluRay.x264-STEREOSCOPiC.mkv
Format                                   : Matroska
Format version                           : Version 4 / Version 2
File size                                : 6.84 GiB
Duration                                 : 2h 29mn
Overall bit rate                         : 6 555 Kbps
Encoded date                             : UTC 2018-09-01 13:58:23
Writing application                      : mkvmerge v23.0.0 ('The Bride Said No') 64-bit
Writing library                          : libebml v1.3.6 + libmatroska v1.4.9
DURATION                                 : 00:00:01.115000000
NUMBER_OF_FRAMES                         : 1
NUMBER_OF_BYTES                          : 8606
_STATISTICS_WRITING_APP                  : mkvmerge v23.0.0 ('The Bride Said No') 64-bit
_STATISTICS_WRITING_DATE_UTC             : 2018-09-01 13:58:23
_STATISTICS_TAGS                         : BPS DURATION NUMBER_OF_FRAMES NUMBER_OF_BYTES

Video
ID                                       : 1
Format                                   : AVC
Format/Info                              : Advanced Video Codec
Format profile                           : High@L4.1
Format settings, CABAC                   : Yes
Format settings, ReFrames                : 5 frames
Codec ID                                 : V_MPEG4/ISO/AVC
Duration                                 : 2h 29mn
Bit rate                                 : 4 404 Kbps
Width                                    : 1 920 pixels
Height                                   : 808 pixels
Display aspect ratio                     : 2.40:1
Frame rate mode                          : Constant
Frame rate                               : 23.976 fps
Color space                              : YUV
Chroma subsampling                       : 4:2:0
Bit depth                                : 8 bits
Scan type                                : Progressive
Bits/(Pixel*Frame)                       : 0.118
Stream size                              : 4.59 GiB (67%)
Writing library                          : x264 core 152 r2851 ba24899
Encoding settings                        : cabac=1 / ref=5 / deblock=1:-3:-3 / analyse=0x3:0x133 / me=umh / subme=8 / psy=1 / psy_rd=1.00:0.15 / mixed_ref=1 / me_range=16 / chroma_me=1 / trellis=2 / 8x8dct=1 / cqm=0 / deadzone=21,11 / fast_pskip=0 / chroma_qp_offset=-3 / threads=25 / lookahead_threads=4 / sliced_threads=0 / nr=0 / decimate=1 / interlaced=0 / bluray_compat=0 / constrained_intra=0 / bframes=3 / b_pyramid=2 / b_adapt=2 / b_bias=0 / direct=3 / weightb=1 / open_gop=0 / weightp=2 / keyint=240 / keyint_min=24 / scenecut=40 / intra_refresh=0 / rc_lookahead=50 / rc=crf / mbtree=1 / crf=20.0 / qcomp=0.60 / qpmin=0 / qpmax=69 / qpstep=4 / ip_ratio=1.40 / aq=1:1.00
Language                                 : English
Default                                  : Yes
Forced                                   : No
DURATION                                 : 02:29:21.237000000
NUMBER_OF_FRAMES                         : 214855
NUMBER_OF_BYTES                          : 5076208225
_STATISTICS_WRITING_APP                  : mkvmerge v23.0.0 ('The Bride Said No') 64-bit
_STATISTICS_WRITING_DATE_UTC             : 2018-09-01 13:58:23
_STATISTICS_TAGS                         : BPS DURATION NUMBER_OF_FRAMES NUMBER_OF_BYTES

Audio #1
ID                                       : 2
Format                                   : AC-3
Format/Info                              : Audio Coding 3
Mode extension                           : CM (complete main)
Format settings, Endianness              : Big
Codec ID                                 : A_AC3
Duration                                 : 2h 29mn
Bit rate mode                            : Constant
Bit rate                                 : 512 Kbps
Channel(s)                               : 6 channels
Channel positions                        : Front: L C R, Side: L R, LFE
Sampling rate                            : 48.0 KHz
Bit depth                                : 16 bits
Compression mode                         : Lossy
Stream size                              : 547 MiB (8%)
Language                                 : German
Default                                  : Yes
Forced                                   : No

Audio #2
ID                                       : 3
Format                                   : DTS
Format/Info                              : Digital Theater Systems
Mode                                     : 16
Format settings, Endianness              : Big
Codec ID                                 : A_DTS
Duration                                 : 2h 29mn
Bit rate mode                            : Constant
Bit rate                                 : 1 509 Kbps
Channel(s)                               : 6 channels
Channel positions                        : Front: L C R, Side: L R, LFE
Sampling rate                            : 48.0 KHz
Bit depth                                : 24 bits
Compression mode                         : Lossy
Stream size                              : 1.57 GiB (23%)
Language                                 : English
Default                                  : No
Forced                                   : No

Text #1
ID                                       : 4
Format                                   : VobSub
Muxing mode                              : zlib
Codec ID                                 : S_VOBSUB
Codec ID/Info                            : The same subtitle format used on DVDs
Title                                    : ger-forced
Language                                 : German
Default                                  : Yes
Forced                                   : No

Text #2
ID                                       : 5
Format                                   : VobSub
Muxing mode                              : zlib
Codec ID                                 : S_VOBSUB
Codec ID/Info                            : The same subtitle format used on DVDs
Title                                    : eng-forced
Language                                 : German
Default                                  : No
Forced                                   : No


Download:
Share Online Share OnlineShare OnlineShare Online
 

Kommentare