Filecrypt zeigt vereinzelt Files als "n/a". Die Downloads sind trotzdem komplett.

DNS SERVER AENDERNum der staatlichen Zensur zu umgehen. Sollten wir von eurem Provider geseprrt werden, nutzt den TOR BROWSER oder ändert euren DNS SERVER.

Filmwünsche können bei uns im Forum abgegeben werden

Wir Speichern Nicht




 
 
 
Top Releases
Hotel.Transsilvanien.3.Ein.M...
Hereditary.2018.MULTi.COMPLE...
Ant-Man.and.the.Wasp.2018.Ge...
Meine.Weihnachtsliebe.2016.G...
Meine.Weihnachtsliebe.2016.G...
Ein.Weihnachtswunder.24.Tuer...
Ein.Weihnachtswunder.24.Tuer...
Weihnachtszauber.Ein.Kuss.ko...
Weihnachtszauber.Ein.Kuss.ko...
Weihnachtszauber.Ein.Kuss.ko...

Cinedubs
Slender.Man.2018.GERMAN.DL.A...
Slender.Man.2018.GERMAN.DL.A...
Bad.Spies.2018.German.AC3MD....
MEG.Biss.bald.2018.German.AC...
MEG.Biss.bald.2018.German.AC...
Bad.Spies.2018.German.AC3MD....
Bad.Spies.2018.German.AC3MD....
Searching.2018.German.AC3MD....
Searching.2018.German.AC3MD....
211.Cops.Under.Fire.2018.Ger...

Neuerscheinungen 2017-18
Das.ist.erst.der.Anfang.Just...
Das.ist.erst.der.Anfang.Miss...
Transit.2018.German.DTS.1080...
Transit.2018.German.DTS.720p...
The.Walking.Deceased.Die.Nac...
The.Walking.Deceased.Die.Nac...
Das.ist.erst.der.Anfang.Miss...
The.Jurassic.Games.2018.GERM...
The.Jurassic.Games.2018.GERM...
Weihnachten.die.Liebe.und.me...

XXX
SpyFam.18.10.01.Chloe.Temple...
MistressT.18.06.05.Pantyhose...
DaneJones.18.10.02.Jasmine.W...
KarupsPC.18.10.03.Victoria.J...
MetArtX.18.10.02.Sybil.A.Col...
FemaleFakeTaxi.18.10.05.Nath...
FakeAgent.18.10.04.Kizzy.Six...
MySistersHotFriend.18.10.03....
MistressT.18.04.03.You.Disgu...
GotMylf.18.10.04.Pristine.Ed...
HouseOfTaboo.18.10.05.Alice....
MistressT.18.05.22.Tiny.Dick...
MistressT.18.06.30.Evil.Step...
PornstarsLikeItBig.18.10.04....
PlayboyPlus.18.10.02.Joelina...
RylskyArt.18.10.01.Alexandra...
GangbangCreampie.18.10.05.G1...
EvilAngel.Young.Hot.Ass.XXX....
Cosmid.18.10.01.Eva.Ditov.Co...
TeensLoveHugeCocks.18.10.05....

3D
Jurassic.World.Das.gefallene...
Jurassic.World.Das.gefallene...
Best.of.3D.vol.10.-.12.GERMA...
Die.Biene.Maja.2.Die.Honigsp...
Sharknado.6.The.Last.One.3D....
Solo.A.Star.Wars.Story.3D.20...
Solo.A.Star.Wars.Story.3D.20...
Die.Biene.Maja.2.Die.Honigsp...
Avengers.Infinity.War.3D.201...
Avengers.Infinity.War.3D.201...
Rampage.Big.Meets.Bigger.3D....
Rampage.Big.Meets.Bigger.3D....
Rampage.Big.Meets.Bigger.3D....
Winter.Games.3D.2013.DUAL.CO...
Tomb.Raider.3D.2018.German.7...

Old_Stuff
Species.IV.Das.Erwachen.2007...
Species.IV.Das.Erwachen.2007...
Hotel.Transsilvanien.2012.Ge...
The.Dead.2010.German.DL.1080...
The.Dead.2.India.2013.German...
Britney.Spears.Live.The.Femm...
Buffy.The.Vampire.Slayer.199...
IMAX.Ride.Around.The.World.2...
Schimanski.-.Duisburg.Ruhror...
Akte.X.S02.German.DTS.DL.108...
How.I.Met.Your.Mother.S02.Ge...
Akte.X.S01.German.DTS.DL.108...
Den.Himmel.gibts.echt.DL.108...
Vikings.S02.German.DL.1080p....
Be.Kind.Rewind.Abgedreht.200...

Filme
Young.Sheldon.S01.GERMAN.DUB...
Young.Sheldon.S01.GERMAN.DUB...
Animal.Kingdom.S03.German.DD...
Legends.of.Tomorrow.S03.Germ...
Ein.ganz.gewoehnlicher.Dieb....
The.Haunting.of.Whaley.House...
The.Hidden.Blade.2004.German...
The.Hike.Ausflug.ins.Grauen....
The.Hitmen.Kill.Em.All.2014....
Inside.Man.2006.German.DTS.D...
Ein.freudiges.Ereignis.2011....
The.Holding.2011.German.DL.1...
The.Heavy.Der.letzte.Job.201...
The.Hollow.Mord.in.Mississip...
Inglourious.Basterds.German....
Push.2009.OPEN.MATTE.German....
Hawaii.2013.COMPLETE.UHD.BLU...
Verrueckt.nach.Mary.Extended...
Homerun.1994.German.AC3D.DL....
Papillon.1973.German.DL.1080...
Undercover.1995.German.AC3D....
Uncle.Sam.1997.German.AC3D.D...
Die.Klasse.2008.German.AC3D....
2.Fast.2.Furious.2003.German...

 
 
The.Last.Man.On.Earth.S04.COMPLETE.German.DL.Dubbed.1080p.AmazonHD.h264-GDR

Jahr: 2017
Genre: Action | Komödie | Drama
Sprache: Deutsch AC3 | Englisch AC3
Laufzeit: 21min je Folge
Bitrate: 14 Mbps
Format: MKV
Größe: 2,3 GB je Folge
Release:

Beschreibung:

Wir schreiben das Jahr 2022. Nach einem „unwahrscheinlichen Ereignis“ ist nur noch ein Mann auf der Welt übrig: Phil Miller. Vor dem Ereignis war er ein durchschnittlicher Kerl. Er liebte seine Familie und hasste seinen Job bei einer Bank. Nun ist er alleine. Und zieht mit seinem Wohnwagen durch Nordamerika, auf der Suche nach anderen Menschen. Er war schon in Kanada, in Mexiko, und im Weißen Haus in Washington. Da er nach seiner langen Suche immer noch niemanden gefunden hat, steht er vor der niederschmetternden Erkenntnis, dass er wirklich der letzte Mensch sein muss...



General
Complete name                            : The.Last.Man.On.Earth.S04E01.Ab.auf.die.Insel.German.DL.Dubbed.1080p.AmazonHD.h264-GDR.mkv
Format                                   : Matroska
Format version                           : Version 4 / Version 2
File size                                : 2.28 GiB
Duration                                 : 21mn 40s
Overall bit rate mode                    : Variable
Overall bit rate                         : 15.0 Mbps
Encoded date                             : UTC 2018-08-15 19:50:42
Writing application                      : mkvmerge v23.0.0 ('The Bride Said No') 64-bit
Writing library                          : libebml v1.3.6 + libmatroska v1.4.9
DURATION                                 : 00:21:40.544000000
NUMBER_OF_FRAMES                         : 40642
NUMBER_OF_BYTES                          : 62426112
_STATISTICS_WRITING_APP                  : mkvmerge v23.0.0 ('The Bride Said No') 64-bit
_STATISTICS_WRITING_DATE_UTC             : 2018-08-15 19:50:42
_STATISTICS_TAGS                         : BPS DURATION NUMBER_OF_FRAMES NUMBER_OF_BYTES

Video
ID                                       : 1
Format                                   : AVC
Format/Info                              : Advanced Video Codec
Format profile                           : High@L4.0
Format settings, CABAC                   : Yes
Format settings, ReFrames                : 4 frames
Codec ID                                 : V_MPEG4/ISO/AVC
Duration                                 : 21mn 40s
Bit rate mode                            : Variable
Bit rate                                 : 14.2 Mbps
Maximum bit rate                         : 15.0 Mbps
Width                                    : 1 920 pixels
Height                                   : 1 080 pixels
Display aspect ratio                     : 16:9
Frame rate mode                          : Constant
Frame rate                               : 25.000 fps
Color space                              : YUV
Chroma subsampling                       : 4:2:0
Bit depth                                : 8 bits
Scan type                                : Progressive
Bits/(Pixel*Frame)                       : 0.273
Stream size                              : 2.15 GiB (94%)
Language                                 : German
Default                                  : Yes
Forced                                   : No
Color primaries                          : BT.709
Transfer characteristics                 : BT.709
Matrix coefficients                      : BT.709

Audio #1
ID                                       : 2
Format                                   : AC-3
Format/Info                              : Audio Coding 3
Mode extension                           : CM (complete main)
Format settings, Endianness              : Big
Codec ID                                 : A_AC3
Duration                                 : 21mn 40s
Bit rate mode                            : Constant
Bit rate                                 : 192 Kbps
Channel(s)                               : 2 channels
Channel positions                        : Front: L R
Sampling rate                            : 48.0 KHz
Bit depth                                : 16 bits
Compression mode                         : Lossy
Stream size                              : 29.8 MiB (1%)
Language                                 : German
Default                                  : Yes
Forced                                   : No

Audio #2
ID                                       : 3
Format                                   : AC-3
Format/Info                              : Audio Coding 3
Mode extension                           : CM (complete main)
Format settings, Endianness              : Big
Codec ID                                 : A_AC3
Duration                                 : 21mn 40s
Bit rate mode                            : Constant
Bit rate                                 : 384 Kbps
Channel(s)                               : 6 channels
Channel positions                        : Front: L C R, Side: L R, LFE
Sampling rate                            : 48.0 KHz
Bit depth                                : 16 bits
Compression mode                         : Lossy
Stream size                              : 59.5 MiB (3%)
Language                                 : English
Default                                  : No
Forced                                   : No



Download:
Share-Online.biz Share-Online.bizShare-Online.bizShare-Online.biz | Rapidgator.net Rapidgator.netRapidgator.netRapidgator.net
 

Kommentare

  1. Geschrieben am 30. August 2018, 18:48 Uhr von Daniel · #

    Was ist denn nur mit der 5. Folge? Wieso ist die 6. schon raus aber die 5. noch nicht??

    / kannst Du nicht lesen? Steht doch das, warum Folge 5 noch nicht da ist.