DNS SERVER AENDERNum der staatlichen Zensur zu umgehen. Sollten wir von eurem Provider geseprrt werden, nutzt den TOR BROWSER oder ändert euren DNS SERVER.

Filmwünsche können bei uns im Forum abgegeben werden

Wir Speichern Nicht




 
 
 
Top Releases
Im.Zweifel.gluecklich.2017.G...
Im.Zweifel.gluecklich.2017.G...
Thelma.2017.GERMAN.720p.BluR...
Thelma.2017.GERMAN.1080p.Blu...
Thelma.2017.GERMAN.DUAL.COMP...
The.Death.of.Stalin.2017.Ger...
Revenge.2017.German.AC3.DL.1...
Avengers.Infinity.War.2018.G...
Avengers.Infinity.War.2018.G...
Avengers.Infinity.War.2018.G...

Cinedubs
Breaking.In.2018.UNRATED.GER...
Breaking.In.2018.UNRATED.GER...
Breaking.In.2018.UNRATED.GER...
Deadpool.2.2018.Super.Duper....
Deadpool.2.2018.Super.Duper....
Die.Farbe.des.Horizonts.2018...
Die.Farbe.des.Horizonts.2018...
Catch.Me.2018.GERMAN.DL.AC3....
Catch.Me.2018.GERMAN.DL.AC3....
Deadpool.2.Super.Duper.Cut.2...

Neuerscheinungen 2017-18
A.Thought.of.Ecstasy.2017.MU...
Criminal.Squad.THEATRICAL.20...
Criminal.Squad.THEATRICAL.20...
Criminal.Squad.THEATRICAL.20...
Criminal.Squad.THEATRICAL.20...
Action.Point.2018.German.AC3...
A.Thought.of.Ecstasy.2017.Ge...
A.Thought.of.Ecstasy.2017.Ge...
The.Package.2018.GERMAN.720p...
Norma.Rae.1979.MULTi.COMPLET...

XXX
WildOnCam.18.08.14.Vienna.Ro...
Yanks.18.08.04.Daliah.Amor.B...
BitchConfessions.18.08.13.Ba...
21FootArt.18.08.14.Shona.Riv...
WildOnCam.18.08.13.Luna.Star...
ZeroTolerance.Bring.Back.Bus...
WildOnCam.18.08.03.Lilly.Hal...
BlackPayBack.E03.Violet.Monr...
X-Art.18.08.03.Niki.Young.18...
WowGirls.18.08.13.Anina.Silk...
XXXShades.18.08.05.Lee.Anne....
ATKGirlfriends.18.08.13.Tara...
BlackPayBack.E08.Lauren.Phil...
BlackPayBack.E06.Summer.Day....
WickedPictures.Deep.Anal.Dri...
X-Art.18.08.08.Zazie.Hot.Off...
BlackPayBack.E05.Maddy.Oreil...
WhenGirlsPlay.18.08.14.Elena...
WhiteGhetto.18.08.14.Gia.Ste...
WildOnCam.18.08.10.Isabelle....

3D
Rampage.Big.Meets.Bigger.3D....
Rampage.Big.Meets.Bigger.3D....
Rampage.Big.Meets.Bigger.3D....
Winter.Games.3D.2013.DUAL.CO...
Tomb.Raider.3D.2018.German.7...
Rampage.Big.Meets.Bigger.3D....
Rampage.Big.Meets.Bigger.3D....
Tomb.Raider.3D.2018.MULTi.CO...
Pacific.Rim.Uprising.3D.2018...
Ready.Player.One.3D.2018.Ger...
Rampage.-.Big.Meets.Bigger.2...
Ready.Player.One.2018.3D.HOU...
Ready.Player.One.2018.3D.HSB...
Ready.Player.One.3D.2018.MUL...
Black.Panther.3D.2018.MULTI....

Old_Stuff
Meine.liebe.Rabenmutter.germ...
Da.Vincis.Demons.S01.Complet...
Eragon.Das.Vermaechtnis.der....
Adele.und.das.Geheimnis.des....
Die.fabelhafte.Welt.der.Amel...
Haus.des.Geldes.S01.German.M...
How.I.Met.Your.Mother.S01.Ge...
The.Dark.Knight.Rises.2012.M...
Weissensee.S03.2015.GERMAN.C...
Weissensee.S01+S02.2010.GERM...
Die.Unglaublichen.-.The.Incr...
Der.grosse.Trick.1978.German...
Sully.2016.MULTi.COMPLETE.BL...
Tremors.3.Die.neue.Brut.2001...
Die.Indianer.von.Cleveland.2...

Filme
Ready.Player.One.2018.German...
Avengers.Infinity.War.2018.3...
Avengers.Infinity.War.2018.3...
Vollblueter.2017.German.DTS....
Mein.Freund.die.Giraffe.2017...
Bleeder.1999.German.DL.AC3D....
Pans.Labyrinth.Ultimate.Edit...
Death.Wish.2018.German.DL.21...
Geisterstädte.2014.German.A...
Oblivion.Open.Matte.2013.Ger...
Alien.Resurrection.Open.Matt...
Der.unheimliche.Zotti.1959.1...
Ash.vs.Evil.Dead.S02.COMPLET...
Ash.vs.Evil.Dead.S02.COMPLET...
Colony.S03.COMPLETE.GERMAN.D...
MacGyver.S02.GERMAN.DUBBED.D...
Die.Lusitania.-.Drama.im.Atl...
New.York.Street.Photography....
Avengers.Infinity.War.2018.G...
Fabelhafte.Welt.der.Wale.Ger...
Fabelhafte.Welt.der.Wale.Ger...
Disenchantment.S01.COMPLETE....
Disenchantment.S01.COMPLETE....
Avengers.3.Infinity.War.OPEN...

 
 
Der.Sex.Pakt.2018.German.720p.BluRay.x264-ENCOUNTERS
Jahr: 2018
Genre: Komödie
Sprache: Deutsch DTS
Laufzeit: 1h 41mn
Bitrate: 2 576 Kbps
Format: MKV
Größe: 1.83 GiB
Release:

Beschreibung:
Julie (Kathryn Newton), Kayla (Geraldine Viswanathan) und Sam (Gideon Adlon) sind Kindheitsfreundinnen, gehen gemeinsam auf die Highschool und schließen einen Pakt, ihre Jungfräulichkeit in der Nacht des Abschlussballs zu verlieren. Für die drei Mädels ist das gar keine so besondere Sache – ganz im Unterschied zu ihren Eltern. Das sind Julies hippe Single-Mutter Lisa (Leslie Mann), Kaylas ständig zwischen Wut und Tränen schwankender Papa Mitchell (John Cena) und Sams geschiedener, häufig ziemlich fieser Vater Hunter (Ike Barinholtz). Dieses tief besorgte, übervorsichtige Trio bekommt mit, was die Sprösslinge vorhaben. Die Erwachsenen starten eine schlecht geplante Nacht-und-Nebel-Aktion, um die Jungfräulichkeit ihrer Mädels zu retten. Das elterliche Vorhaben wird sehr schnell sehr chaotisch…


Complete name                            : encounters-desepa_720p.mkv
Format                                   : Matroska
Format version                           : Version 4 / Version 2
File size                                : 1.83 GiB
Duration                                 : 1h 41mn
Overall bit rate                         : 2 576 Kbps
Encoded date                             : UTC 2018-08-07 16:33:20
Writing application                      : mkvmerge v14.0.0 ('Flow') 64bit
Writing library                          : libebml v1.3.4 + libmatroska v1.4.5
DURATION                                 : 01:39:57.825000000
NUMBER_OF_FRAMES                         : 28
NUMBER_OF_BYTES                          : 886
_STATISTICS_WRITING_APP                  : mkvmerge v14.0.0 ('Flow') 64bit
_STATISTICS_WRITING_DATE_UTC             : 2018-08-07 16:33:20
_STATISTICS_TAGS                         : BPS DURATION NUMBER_OF_FRAMES NUMBER_OF_BYTES

Video
ID                                       : 1
Format                                   : AVC
Format/Info                              : Advanced Video Codec
Format profile                           : [email protected]
Format settings, CABAC                   : Yes
Format settings, ReFrames                : 5 frames
Codec ID                                 : V_MPEG4/ISO/AVC
Duration                                 : 1h 41mn
Bit rate                                 : 1 757 Kbps
Width                                    : 1 280 pixels
Height                                   : 536 pixels
Display aspect ratio                     : 2.40:1
Frame rate mode                          : Constant
Frame rate                               : 23.976 fps
Color space                              : YUV
Chroma subsampling                       : 4:2:0
Bit depth                                : 8 bits
Scan type                                : Progressive
Bits/(Pixel*Frame)                       : 0.107
Stream size                              : 1.25 GiB (68%)
Writing library                          : x264 core 155 r2901 7d0ff22
Encoding settings                        : cabac=1 / ref=5 / deblock=1:-1:-1 / analyse=0x3:0x133 / me=umh / subme=7 / psy=1 / psy_rd=1.00:0.15 / mixed_ref=1 / me_range=16 / chroma_me=1 / trellis=1 / 8x8dct=1 / cqm=0 / deadzone=21,11 / fast_pskip=0 / chroma_qp_offset=-3 / threads=16 / lookahead_threads=2 / sliced_threads=0 / nr=0 / decimate=1 / interlaced=0 / bluray_compat=0 / constrained_intra=0 / bframes=3 / b_pyramid=2 / b_adapt=1 / b_bias=0 / direct=1 / weightb=1 / open_gop=0 / weightp=2 / keyint=250 / keyint_min=23 / scenecut=40 / intra_refresh=0 / rc_lookahead=40 / rc=crf / mbtree=1 / crf=20.0 / qcomp=0.60 / qpmin=0 / qpmax=69 / qpstep=4 / ip_ratio=1.40 / aq=1:1.00
Default                                  : Yes
Forced                                   : No

Audio
ID                                       : 2
Format                                   : DTS
Format/Info                              : Digital Theater Systems
Mode                                     : 16
Format settings, Endianness              : Big
Codec ID                                 : A_DTS
Duration                                 : 1h 41mn
Bit rate mode                            : Constant
Bit rate                                 : 768 Kbps
Channel(s)                               : 6 channels
Channel positions                        : Front: L C R, Side: L R, LFE
Sampling rate                            : 48.0 KHz
Bit depth                                : 24 bits
Compression mode                         : Lossy
Stream size                              : 560 MiB (30%)
Language                                 : German
Default                                  : Yes
Forced                                   : No

Text
ID                                       : 3
Format                                   : UTF-8
Codec ID                                 : S_TEXT/UTF8
Codec ID/Info                            : UTF-8 Plain Text
Language                                 : German
Default                                  : Yes
Forced                                   : Yes


Download:
Share Online Share OnlineShare OnlineShare Online
 

Kommentare