DNS SERVER AENDERNum der staatlichen Zensur zu umgehen. Sollten wir von eurem Provider geseprrt werden, nutzt den TOR BROWSER oder ändert euren DNS SERVER.

Filmwünsche können bei uns im Forum abgegeben werden

Wir Speichern Nicht




 
 
 
Top Releases
Im.Zweifel.gluecklich.2017.G...
Im.Zweifel.gluecklich.2017.G...
Thelma.2017.GERMAN.720p.BluR...
Thelma.2017.GERMAN.1080p.Blu...
Thelma.2017.GERMAN.DUAL.COMP...
The.Death.of.Stalin.2017.Ger...
Revenge.2017.German.AC3.DL.1...
Avengers.Infinity.War.2018.G...
Avengers.Infinity.War.2018.G...
Avengers.Infinity.War.2018.G...

Cinedubs
Breaking.In.2018.UNRATED.GER...
Breaking.In.2018.UNRATED.GER...
Breaking.In.2018.UNRATED.GER...
Deadpool.2.2018.Super.Duper....
Deadpool.2.2018.Super.Duper....
Die.Farbe.des.Horizonts.2018...
Die.Farbe.des.Horizonts.2018...
Catch.Me.2018.GERMAN.DL.AC3....
Catch.Me.2018.GERMAN.DL.AC3....
Deadpool.2.Super.Duper.Cut.2...

Neuerscheinungen 2017-18
A.Thought.of.Ecstasy.2017.MU...
Criminal.Squad.THEATRICAL.20...
Criminal.Squad.THEATRICAL.20...
Criminal.Squad.THEATRICAL.20...
Criminal.Squad.THEATRICAL.20...
Action.Point.2018.German.AC3...
A.Thought.of.Ecstasy.2017.Ge...
A.Thought.of.Ecstasy.2017.Ge...
The.Package.2018.GERMAN.720p...
Norma.Rae.1979.MULTi.COMPLET...

XXX
WildOnCam.18.08.14.Vienna.Ro...
Yanks.18.08.04.Daliah.Amor.B...
BitchConfessions.18.08.13.Ba...
21FootArt.18.08.14.Shona.Riv...
WildOnCam.18.08.13.Luna.Star...
ZeroTolerance.Bring.Back.Bus...
WildOnCam.18.08.03.Lilly.Hal...
BlackPayBack.E03.Violet.Monr...
X-Art.18.08.03.Niki.Young.18...
WowGirls.18.08.13.Anina.Silk...
XXXShades.18.08.05.Lee.Anne....
ATKGirlfriends.18.08.13.Tara...
BlackPayBack.E08.Lauren.Phil...
BlackPayBack.E06.Summer.Day....
WickedPictures.Deep.Anal.Dri...
X-Art.18.08.08.Zazie.Hot.Off...
BlackPayBack.E05.Maddy.Oreil...
WhenGirlsPlay.18.08.14.Elena...
WhiteGhetto.18.08.14.Gia.Ste...
WildOnCam.18.08.10.Isabelle....

3D
Rampage.Big.Meets.Bigger.3D....
Rampage.Big.Meets.Bigger.3D....
Rampage.Big.Meets.Bigger.3D....
Winter.Games.3D.2013.DUAL.CO...
Tomb.Raider.3D.2018.German.7...
Rampage.Big.Meets.Bigger.3D....
Rampage.Big.Meets.Bigger.3D....
Tomb.Raider.3D.2018.MULTi.CO...
Pacific.Rim.Uprising.3D.2018...
Ready.Player.One.3D.2018.Ger...
Rampage.-.Big.Meets.Bigger.2...
Ready.Player.One.2018.3D.HOU...
Ready.Player.One.2018.3D.HSB...
Ready.Player.One.3D.2018.MUL...
Black.Panther.3D.2018.MULTI....

Old_Stuff
Meine.liebe.Rabenmutter.germ...
Da.Vincis.Demons.S01.Complet...
Eragon.Das.Vermaechtnis.der....
Adele.und.das.Geheimnis.des....
Die.fabelhafte.Welt.der.Amel...
Haus.des.Geldes.S01.German.M...
How.I.Met.Your.Mother.S01.Ge...
The.Dark.Knight.Rises.2012.M...
Weissensee.S03.2015.GERMAN.C...
Weissensee.S01+S02.2010.GERM...
Die.Unglaublichen.-.The.Incr...
Der.grosse.Trick.1978.German...
Sully.2016.MULTi.COMPLETE.BL...
Tremors.3.Die.neue.Brut.2001...
Die.Indianer.von.Cleveland.2...

Filme
Ready.Player.One.2018.German...
Avengers.Infinity.War.2018.3...
Avengers.Infinity.War.2018.3...
Vollblueter.2017.German.DTS....
Mein.Freund.die.Giraffe.2017...
Bleeder.1999.German.DL.AC3D....
Pans.Labyrinth.Ultimate.Edit...
Death.Wish.2018.German.DL.21...
Geisterstädte.2014.German.A...
Oblivion.Open.Matte.2013.Ger...
Alien.Resurrection.Open.Matt...
Der.unheimliche.Zotti.1959.1...
Ash.vs.Evil.Dead.S02.COMPLET...
Ash.vs.Evil.Dead.S02.COMPLET...
Colony.S03.COMPLETE.GERMAN.D...
MacGyver.S02.GERMAN.DUBBED.D...
Die.Lusitania.-.Drama.im.Atl...
New.York.Street.Photography....
Avengers.Infinity.War.2018.G...
Fabelhafte.Welt.der.Wale.Ger...
Fabelhafte.Welt.der.Wale.Ger...
Disenchantment.S01.COMPLETE....
Disenchantment.S01.COMPLETE....
Avengers.3.Infinity.War.OPEN...

 
 
Missions.S01.GERMAN.DUBBED.720p.HDTV.x264-ZZGtv
Jahr: 2017
Genre: Sci-Fi
Sprache: Deutsch AC3
Laufzeit: 26min je Folge
Bitrate: 5100 Kbps
Format: MKV
Größe: 1 GB je Folge
Release:

Beschreibung:

 

Die französische Serie Missions befasst sich mit einer mit Europäern bemannten Mission zum Mars, die von einem exzentrischen Milliardär aus der Schweiz finanziert wird. Gleichzeitig hat sich ein US-amerikanisches Raumschiff auf den Weg zum roten Planeten gemacht und gerät während des Wettlaufs in Gefahr, so dass die europäischen Kollegen sich gezwungen sehen, zur Rettung zu eilen.

Auf der Planetenoberfläche wartet schließlich eine unglaubliche Überraschung auf Board-Psychiaterin Jeanne Renoir und die Crew: Sie treffen auf den Russen Vladimir Komarov - den ersten Mann, der im All gestorben ist.

 

enthaltene Folgen:

Missions.S01E01.Odysseus.GERMAN.DUBBED.720p.HDTV.x264-ZZGtv

Missions.S01E02.Mars.GERMAN.DUBBED.720p.BLURAY.x264-ZZGtv

Missions.S01E03.Ueberlebender.GERMAN.DUBBED.720p.BLURAY.x264-ZZGtv 

Missions.S01E04.Stein.GERMAN.DUBBED.720p.BLURAY.x264-ZZGtv

Missions.S01E05.Allianz.GERMAN.DUBBED.720p.BLURAY.x264-ZZGtv NEU

Missions.S01E06.Irene.GERMAN.DUBBED.720p.BLURAY.x264-ZZGtv NEU



General
Complete name                            : Missions.S01E01.Odysseus.GERMAN.DUBBED.720p.HDTV.x264-ZZGtv\zzgtv-missions-s01e01.mkv
Format                                   : Matroska
Format version                           : Version 2
File size                                : 1 010 MiB
Duration                                 : 26mn 24s
Overall bit rate                         : 5 346 Kbps
Encoded date                             : UTC 2018-08-01 18:21:46
Writing application                      : mkvmerge v3.1.0 ('HELLO KITTY') built on Feb 16 2010 03:12:16
Writing library                          : libebml v0.7.9 + libmatroska v0.8.1

Video
ID                                       : 1
Format                                   : AVC
Format/Info                              : Advanced Video Codec
Format profile                           : [email protected].1
Format settings, CABAC                   : Yes
Format settings, ReFrames                : 9 frames
Codec ID                                 : V_MPEG4/ISO/AVC
Duration                                 : 26mn 24s
Bit rate                                 : 5 153 Kbps
Width                                    : 1 280 pixels
Height                                   : 480 pixels
Display aspect ratio                     : 2.667
Frame rate mode                          : Constant
Frame rate                               : 25.000 fps
Color space                              : YUV
Chroma subsampling                       : 4:2:0
Bit depth                                : 8 bits
Scan type                                : Progressive
Bits/(Pixel*Frame)                       : 0.335
Stream size                              : 954 MiB (94%)
Writing library                          : x264 core 155 r2901 7d0ff22
Encoding settings                        : cabac=1 / ref=9 / deblock=1:-3:-3 / analyse=0x3:0x113 / me=umh / subme=8 / psy=1 / psy_rd=1.00:0.00 / mixed_ref=1 / me_range=16 / chroma_me=1 / trellis=2 / 8x8dct=1 / cqm=0 / deadzone=21,11 / fast_pskip=0 / chroma_qp_offset=-2 / threads=15 / lookahead_threads=2 / sliced_threads=0 / nr=0 / decimate=1 / interlaced=0 / bluray_compat=0 / constrained_intra=0 / bframes=3 / b_pyramid=2 / b_adapt=1 / b_bias=0 / direct=1 / weightb=1 / open_gop=0 / weightp=2 / keyint=250 / keyint_min=25 / scenecut=40 / intra_refresh=0 / rc_lookahead=40 / rc=2pass / mbtree=1 / bitrate=5153 / ratetol=1.0 / qcomp=0.60 / qpmin=0 / qpmax=69 / qpstep=4 / cplxblur=20.0 / qblur=0.5 / ip_ratio=1.40 / aq=1:1.00
Default                                  : Yes
Forced                                   : No

Audio
ID                                       : 2
Format                                   : AC-3
Format/Info                              : Audio Coding 3
Mode extension                           : CM (complete main)
Format settings, Endianness              : Big
Codec ID                                 : A_AC3
Duration                                 : 26mn 24s
Bit rate mode                            : Constant
Bit rate                                 : 192 Kbps
Channel(s)                               : 2 channels
Channel positions                        : Front: L R
Sampling rate                            : 48.0 KHz
Bit depth                                : 16 bits
Compression mode                         : Lossy
Stream size                              : 36.3 MiB (4%)
Default                                  : Yes
Forced                                   : No



Download:
Share-Online.biz Share-Online.bizShare-Online.bizShare-Online.biz | Rapidgator.net Rapidgator.netRapidgator.netRapidgator.net
 

Kommentare