Filecrypt zeigt vereinzelt Files als "n/a". Die Downloads sind trotzdem komplett.

DNS SERVER AENDERNum der staatlichen Zensur zu umgehen. Sollten wir von eurem Provider geseprrt werden, nutzt den TOR BROWSER oder ändert euren DNS SERVER.

Filmwünsche können bei uns im Forum abgegeben werden

Wir Speichern Nicht




 
 
 
Top Releases
Le.Jeu.Nichts.zu.verbergen.2...
Le.Jeu.Nichts.zu.verbergen.2...
Cam.2018.German.DL.1080p.WEB...
Cam.2018.German.DL.720p.WEB....
Teen.Titans.Go.To.the.Movies...
The.Ballad.of.Buster.Scruggs...
Teen.Titans.Go.To.the.Movies...
The.Ballad.of.Buster.Scruggs...
Logan.The.Wolverine.2017.NOI...
Mandy.2018.German.DL.1080p.B...

Cinedubs
Christopher.Robin.German.DL....
Christopher.Robin.German.DL....
A.Star.Is.Born.German.DL.AC3...
A.Star.Is.Born.German.DL.AC3...
Mission.Impossible.Fallout.G...
Mission.Impossible.Fallout.G...
Sicario.2.2018.German.DL.AC3...
Juliet.Naked.2018.GERMAN.DL....
Juliet.Naked.2018.GERMAN.DL....
10x10.2018.German.AC3D.DL.10...

Neuerscheinungen 2017-18
Immortal.Wars.Nur.der.Staerk...
Beautiful.People.2014.German...
Mission.Yeti.2017.German.DL....
Mission.Yeti.2017.German.720...
Boarding.School.2018.German....
Boarding.School.2018.German....
10x10.2018.GERMAN.DL.1080p.B...
10x10.2018.GERMAN.720p.BluRa...
The.Marine.6.Close.Quarters....
The.Marine.6.Close.Quarters....

XXX
NetVideoGirls.18.10.23.Janey...
NHLPCentral.18.06.21.Brook.L...
LustyGrandmas.18.03.22.Marsh...
POVPornstars.18.10.30.Lila.M...
POVLife.18.10.29.Skylar.Vale...
NetGirl.18.10.17.Gemma.And.A...
NewSensations.18.10.29.Angel...
Nubiles.18.10.29.Cleo.Mijare...
OldYoungLesbianLove.18.10.29...
NHLPCentral.18.06.14.Honour....
NubileFilms.18.10.29.Riley.S...
LustyGrandmas.18.04.02.Sila....
PlayboyPlus.18.10.29.Jenessa...
Old-n-Young.18.10.27.Blue.Sk...
NewSensations.18.10.31.Emily...
OnlyBlowJob.18.10.04.Rose.XX...
PlayboyPlus.18.10.28.Playmat...
LustyGrandmas.18.04.08.Viol....
PixAndVideo.18.10.29.Marica....
Passion-HD.18.10.31.Megan.Wi...

3D
Die.Unglaublichen.2.2018.3D....
Skyscraper.3D.2018.MULTi.COM...
Ant-Man.And.The.Wasp.3D.2018...
Ant.Man.and.the.Wasp.3D.2018...
Die.Unglaublichen.2.3D.2018....
Die.Unglaublichen.2.2018.3D....
Die.Unglaublichen.2.2018.3D....
Sharknado.6.The.Last.One.3D....
Deep.Kleine.Helden.der.Tiefs...
Deep.3D.2017.MULTI.COMPLETE....
Detective.Dee.und.die.Legend...
Detective.Dee.und.die.Legend...
Skyscraper.3D.German.DL.AC3....
Ant-Man.and.the.Wasp.2018.3D...
Jurassic.World.Das.gefallene...

Old_Stuff
Detective.Dee.und.das.Geheim...
Detective.Dee.Und.Der.Fluch....
Ghost.Rider.Spirit.of.Vengea...
Species.IV.Das.Erwachen.2007...
Species.IV.Das.Erwachen.2007...
Hotel.Transsilvanien.2012.Ge...
The.Dead.2010.German.DL.1080...
The.Dead.2.India.2013.German...
Britney.Spears.Live.The.Femm...
Buffy.The.Vampire.Slayer.199...
IMAX.Ride.Around.The.World.2...
Schimanski.-.Duisburg.Ruhror...
Akte.X.S02.German.DTS.DL.108...
How.I.Met.Your.Mother.S02.Ge...
Akte.X.S01.German.DTS.DL.108...

Filme
Scorpion.King.Das.Buch.der.S...
Das.Geheimniss.von.Marrowbon...
Es.2017.German.DL.1080p.BluR...
Todesritt.nach.Jericho.2006....
Teen.Titans.Go.To.the.Movies...
Todesschuesse.am.Broadway.19...
Todeszug.nach.Yuma.2007.Germ...
Toedliche.Bekenntnisse.2001....
Hereditary.Das.Vermaechtnis....
Jigsaw.2017.German.DL.1080p....
The.Strangers.Opfernacht.UNR...
Toedlicher.Anruf.2008.German...
Toedlicher.Charme.1990.Germa...
Toedlicher.Irrtum.1970.Germa...
Tanz.der.Teufel.2.1987.Remas...
To.Save.a.Life.2009.German.D...
Clockers.1995.German.DL.1080...
Toedliche.Fragen.1990.German...
Toedliche.Umarmung.1979.Germ...
MotoGP.Moto2.Moto3.Saison.20...
Meerjungfrauen.kuessen.besse...
Meerjungfrauen.kuessen.besse...
Mondsuechtig.1987.German.DL....
Mondsuechtig.1987.German.720...

 
 
Blindspot.S03.German.DL.DUBBED.1080p.WebHD.x264-AIDA

Jahr: 2017
Genre: Action | Krimi | Drama
Sprache: Deutsch AC3 | Englisch AC3
Laufzeit: 41min je Folge
Bitrate: 11 Mbps
Format: MKV
Größe: 3,3 GB je Folge
Release:

Beschreibung:

Eine Frau, die sich nicht an ihre Vergangenheit erinnert wacht nackt auf dem Time Square auf. Dabei fällt auf, dass ihr Körper voller komplizierter Tattoos ist. Ihr Erscheinen setzt ein weitreichendes Rätsel in Gang, das auch das FBI auf den Plan ruft. Denn einer der Namen auf ihrem Körper ist vom FBI-Agenten Kurz Weller. „Jane Doe“, Agent Weller und der Rest des FBI finden bald heraus, dass jedes Tattoo für ein Verbrechen steht, das gelöst werden muss. So soll ihre wahre Identität herausgefunden und die Wahrheit ans Licht kommen.

 

enthaltene Folgen:

Blindspot.S03E01.German.DL.DUBBED.1080p.WebHD.x264.iNTERNAL-AIDA

Blindspot.S03E02.German.DL.DUBBED.1080p.WebHD.x264-AIDA

Blindspot.S03E03.German.DL.DUBBED.1080p.WebHD.x264-AIDA

Blindspot.S03E04.German.DL.DUBBED.1080p.WebHD.x264-AIDA

Blindspot.S03E05.German.DL.DUBBED.1080p.WebHD.x264-AIDA

Blindspot.S03E06.German.DL.DUBBED.1080p.WebHD.x264-AIDA

Blindspot.S03E07.German.DL.DUBBED.1080p.WebHD.x264-AIDA

Blindspot.S03E08.German.DL.DUBBED.1080p.WebHD.x264-AIDA

Blindspot.S03E09.German.DL.DUBBED.1080p.WebHD.x264-AIDA

Blindspot.S03E10.German.DL.DUBBED.1080p.WebHD.x264-AIDA

Blindspot.S03E11.German.DL.DUBBED.1080p.WebHD.x264-AIDA

Blindspot.S03E12.German.DL.DUBBED.1080p.WebHD.x264-AIDA 

Blindspot.S03E13.German.DL.DUBBED.1080p.WebHD.x264-AIDA

Blindspot.S03E14.German.DL.DUBBED.1080p.WebHD.x264-AIDA 

Blindspot.S03E15.German.DL.DUBBED.1080p.WebHD.x264-AIDA

Blindspot.S03E16.German.DL.DUBBED.1080p.WebHD.x264-AIDA

Blindspot.S03E17.German.DL.DUBBED.1080p.BluRay.x264-AIDA

Blindspot.S03E18.German.DL.DUBBED.1080p.BluRay.x264-AIDA

Blindspot.S03E19.German.DL.DUBBED.1080p.BluRay.x264-AIDA

Blindspot.S03E20.German.DL.DUBBED.1080p.BluRay.x264-AIDA NEU



General

Complete name                            : Blindspot.S03E01.German.DL.DUBBED.1080p.WebHD.x264.iNTERNAL-AIDA.mkv
Format                                   : Matroska
Format version                           : Version 4 / Version 2
File size                                : 3.41 GiB
Duration                                 : 41mn 20s
Overall bit rate                         : 11.8 Mbps
Encoded date                             : UTC 2018-05-06 12:56:22
Writing application                      : mkvmerge v8.3.0 ('Over the Horizon') 64bit
Writing library                          : libebml v1.3.1 + libmatroska v1.4.2
DURATION                                 : 00:41:20.128000000
NUMBER_OF_FRAMES                         : 77504
NUMBER_OF_BYTES                          : 119046144
_STATISTICS_WRITING_APP                  : mkvmerge v8.3.0 ('Over the Horizon') 64bit
_STATISTICS_WRITING_DATE_UTC             : 2018-05-06 12:56:22
_STATISTICS_TAGS                         : BPS DURATION NUMBER_OF_FRAMES NUMBER_OF_BYTES

Video
ID                                       : 1
Format                                   : AVC
Format/Info                              : Advanced Video Codec
Format profile                           : High@L4.1
Format settings, CABAC                   : Yes
Format settings, ReFrames                : 4 frames
Codec ID                                 : V_MPEG4/ISO/AVC
Duration                                 : 41mn 20s
Bit rate                                 : 11.0 Mbps
Width                                    : 1 920 pixels
Height                                   : 1 080 pixels
Display aspect ratio                     : 16:9
Frame rate mode                          : Constant
Frame rate                               : 25.000 fps
Original frame rate                      : 23.976 fps
Color space                              : YUV
Chroma subsampling                       : 4:2:0
Bit depth                                : 8 bits
Scan type                                : Progressive
Bits/(Pixel*Frame)                       : 0.213
Stream size                              : 3.18 GiB (93%)
Writing library                          : x264 core 155 r2901 7d0ff22
Encoding settings                        : cabac=1 / ref=4 / deblock=1:-3:-3 / analyse=0x3:0x133 / me=umh / subme=11 / psy=1 / psy_rd=1.05:0.15 / mixed_ref=1 / me_range=16 / chroma_me=1 / trellis=2 / 8x8dct=1 / cqm=0 / deadzone=21,11 / fast_pskip=0 / chroma_qp_offset=-3 / threads=12 / lookahead_threads=1 / sliced_threads=0 / nr=0 / decimate=1 / interlaced=0 / bluray_compat=0 / constrained_intra=0 / bframes=3 / b_pyramid=2 / b_adapt=2 / b_bias=0 / direct=3 / weightb=1 / open_gop=0 / weightp=2 / keyint=250 / keyint_min=24 / scenecut=40 / intra_refresh=0 / rc_lookahead=50 / rc=crf / mbtree=1 / crf=17.0 / qcomp=0.60 / qpmin=0 / qpmax=69 / qpstep=4 / ip_ratio=1.40 / aq=3:0.65
Language                                 : English
Default                                  : Yes
Forced                                   : No
DURATION                                 : 00:41:20.160000000
NUMBER_OF_FRAMES                         : 62004
NUMBER_OF_BYTES                          : 3487511796
_STATISTICS_WRITING_APP                  : mkvmerge v8.3.0 ('Over the Horizon') 64bit
_STATISTICS_WRITING_DATE_UTC             : 2018-05-06 12:56:22
_STATISTICS_TAGS                         : BPS DURATION NUMBER_OF_FRAMES NUMBER_OF_BYTES

Audio #1
ID                                       : 2
Format                                   : AC-3
Format/Info                              : Audio Coding 3
Mode extension                           : CM (complete main)
Format settings, Endianness              : Big
Codec ID                                 : A_AC3
Duration                                 : 41mn 20s
Bit rate mode                            : Constant
Bit rate                                 : 192 Kbps
Channel(s)                               : 2 channels
Channel positions                        : Front: L R
Sampling rate                            : 48.0 KHz
Bit depth                                : 16 bits
Compression mode                         : Lossy
Stream size                              : 56.8 MiB (2%)
Language                                 : German
Default                                  : Yes
Forced                                   : No

Audio #2
ID                                       : 3
Format                                   : AC-3
Format/Info                              : Audio Coding 3
Mode extension                           : CM (complete main)
Format settings, Endianness              : Big
Codec ID                                 : A_AC3
Duration                                 : 41mn 20s
Bit rate mode                            : Constant
Bit rate                                 : 384 Kbps
Channel(s)                               : 6 channels
Channel positions                        : Front: L C R, Side: L R, LFE
Sampling rate                            : 48.0 KHz
Bit depth                                : 16 bits
Compression mode                         : Lossy
Stream size                              : 114 MiB (3%)
Language                                 : English
Default                                  : No
Forced                                   : No



Download:
Share-Online.biz Share-Online.bizShare-Online.bizShare-Online.biz | Rapidgator.net Rapidgator.netRapidgator.netRapidgator.net
 

Kommentare

  1. Geschrieben am 2. May 2018, 21:24 Uhr von Tornado · #

    Mega fettes Danke.
    Es geht weiter !!!

  2. Geschrieben am 25. October 2018, 23:09 Uhr von DieWildeGina · #

    Leider ist die aktuelle “E17” bei SO bereits offline!
    Abgesehen davon zickt aktuell “filecrypt” mal wieder rum. Soll heißen, bei der “Sicherheitsüberprüfung” u. dem anklicken bei “Ich bin kein Roboter” tut sich leider nichts. Das Problem tritt seit kurzem auch auf anderen Seiten auf u. hat demnach nichts mit HDA zu tun!
    Zum Glück klappt das einfügen der Links zumindest hier über das direkte kopieren des Links. Doch solange es offline ist, bringt mich das leider auch nicht weiter! LG

    / Wende Dich an Filecrypt. Das ist deren Sicherheitsabfrage. E17 ist online