Filecrypt zeigt vereinzelt Files als "n/a". Die Downloads sind trotzdem komplett.

DNS SERVER AENDERNum der staatlichen Zensur zu umgehen. Sollten wir von eurem Provider geseprrt werden, nutzt den TOR BROWSER oder ändert euren DNS SERVER.

Filmwünsche können bei uns im Forum abgegeben werden

Wir Speichern Nicht




 
 
 
Top Releases
Le.Jeu.Nichts.zu.verbergen.2...
Le.Jeu.Nichts.zu.verbergen.2...
Cam.2018.German.DL.1080p.WEB...
Cam.2018.German.DL.720p.WEB....
Teen.Titans.Go.To.the.Movies...
The.Ballad.of.Buster.Scruggs...
Teen.Titans.Go.To.the.Movies...
The.Ballad.of.Buster.Scruggs...
Logan.The.Wolverine.2017.NOI...
Mandy.2018.German.DL.1080p.B...

Cinedubs
Christopher.Robin.German.DL....
Christopher.Robin.German.DL....
A.Star.Is.Born.German.DL.AC3...
A.Star.Is.Born.German.DL.AC3...
Mission.Impossible.Fallout.G...
Mission.Impossible.Fallout.G...
Sicario.2.2018.German.DL.AC3...
Juliet.Naked.2018.GERMAN.DL....
Juliet.Naked.2018.GERMAN.DL....
10x10.2018.German.AC3D.DL.10...

Neuerscheinungen 2017-18
Immortal.Wars.Nur.der.Staerk...
Beautiful.People.2014.German...
Mission.Yeti.2017.German.DL....
Mission.Yeti.2017.German.720...
Boarding.School.2018.German....
Boarding.School.2018.German....
10x10.2018.GERMAN.DL.1080p.B...
10x10.2018.GERMAN.720p.BluRa...
The.Marine.6.Close.Quarters....
The.Marine.6.Close.Quarters....

XXX
NetVideoGirls.18.10.23.Janey...
NHLPCentral.18.06.21.Brook.L...
LustyGrandmas.18.03.22.Marsh...
POVPornstars.18.10.30.Lila.M...
POVLife.18.10.29.Skylar.Vale...
NetGirl.18.10.17.Gemma.And.A...
NewSensations.18.10.29.Angel...
Nubiles.18.10.29.Cleo.Mijare...
OldYoungLesbianLove.18.10.29...
NHLPCentral.18.06.14.Honour....
NubileFilms.18.10.29.Riley.S...
LustyGrandmas.18.04.02.Sila....
PlayboyPlus.18.10.29.Jenessa...
Old-n-Young.18.10.27.Blue.Sk...
NewSensations.18.10.31.Emily...
OnlyBlowJob.18.10.04.Rose.XX...
PlayboyPlus.18.10.28.Playmat...
LustyGrandmas.18.04.08.Viol....
PixAndVideo.18.10.29.Marica....
Passion-HD.18.10.31.Megan.Wi...

3D
Die.Unglaublichen.2.2018.3D....
Skyscraper.3D.2018.MULTi.COM...
Ant-Man.And.The.Wasp.3D.2018...
Ant.Man.and.the.Wasp.3D.2018...
Die.Unglaublichen.2.3D.2018....
Die.Unglaublichen.2.2018.3D....
Die.Unglaublichen.2.2018.3D....
Sharknado.6.The.Last.One.3D....
Deep.Kleine.Helden.der.Tiefs...
Deep.3D.2017.MULTI.COMPLETE....
Detective.Dee.und.die.Legend...
Detective.Dee.und.die.Legend...
Skyscraper.3D.German.DL.AC3....
Ant-Man.and.the.Wasp.2018.3D...
Jurassic.World.Das.gefallene...

Old_Stuff
Detective.Dee.und.das.Geheim...
Detective.Dee.Und.Der.Fluch....
Ghost.Rider.Spirit.of.Vengea...
Species.IV.Das.Erwachen.2007...
Species.IV.Das.Erwachen.2007...
Hotel.Transsilvanien.2012.Ge...
The.Dead.2010.German.DL.1080...
The.Dead.2.India.2013.German...
Britney.Spears.Live.The.Femm...
Buffy.The.Vampire.Slayer.199...
IMAX.Ride.Around.The.World.2...
Schimanski.-.Duisburg.Ruhror...
Akte.X.S02.German.DTS.DL.108...
How.I.Met.Your.Mother.S02.Ge...
Akte.X.S01.German.DTS.DL.108...

Filme
Scorpion.King.Das.Buch.der.S...
Das.Geheimniss.von.Marrowbon...
Es.2017.German.DL.1080p.BluR...
Todesritt.nach.Jericho.2006....
Teen.Titans.Go.To.the.Movies...
Todesschuesse.am.Broadway.19...
Todeszug.nach.Yuma.2007.Germ...
Toedliche.Bekenntnisse.2001....
Hereditary.Das.Vermaechtnis....
Jigsaw.2017.German.DL.1080p....
The.Strangers.Opfernacht.UNR...
Toedlicher.Anruf.2008.German...
Toedlicher.Charme.1990.Germa...
Toedlicher.Irrtum.1970.Germa...
Tanz.der.Teufel.2.1987.Remas...
To.Save.a.Life.2009.German.D...
Clockers.1995.German.DL.1080...
Toedliche.Fragen.1990.German...
Toedliche.Umarmung.1979.Germ...
MotoGP.Moto2.Moto3.Saison.20...
Meerjungfrauen.kuessen.besse...
Meerjungfrauen.kuessen.besse...
Mondsuechtig.1987.German.DL....
Mondsuechtig.1987.German.720...

 
 
Supernatural.S11.COMPLETE.GERMAN.DUBBED.DL.720p.BluRay.x264-TVP

Jahr: 2015
Genre: Drama | Fantasy | Horror
Sprache: Deutsch AC3 | Englisch AC3
Laufzeit: 41min je Folge
Bitrate: 5800 Kbps
Format: MKV
Größe: 1,9 GB je Folge
Release:

Beschreibung:

Sam und Dean Winchester sind zwei junge Brüder, die ein Ereignis, das vor 20 Jahren stattfand, zusammengeschweißt hat: Der Tod der Mutter. In ihrem 69er Chevy Impala fahren sie Kreuz und Quer durch das Land und versuchen Geistergeschichten und anderen geheimnisvollen Begebenheiten auf die Spur zu kommen.

 

enthaltene Folgen (Staffel komplett):

Supernatural.S11E01.Das.Feuer.der.Finsternis.GERMAN.DUBBED.DL.720p.BluRay.x264-TVP 

Supernatural.S11E02.Die.Leere.der.Finsternis.GERMAN.DUBBED.DL.720p.BluRay.x264-TVP

Supernatural.S11E03.Die.Finsternis.erblueht.GERMAN.DUBBED.DL.720p.BluRay.x264-TVP 

Supernatural.S11E04.Baby.GERMAN.DUBBED.DL.720p.BluRay.x264-TVP

Supernatural.S11E05.Lizzi.Borden.GERMAN.DUBBED.DL.720p.BluRay.x264-TVP 

Supernatural.S11E06.Die.Welt.der.Finsternis.GERMAN.DUBBED.DL.720p.BluRay.x264-TVP

Supernatural.S11E07.Ursache.und.Wirkung.GERMAN.DUBBED.DL.720p.BluRay.x264-TVP 

Supernatural.S11E08.Nur.in.meiner.Fantasie.GERMAN.DUBBED.DL.720p.BluRay.x264-TVP

Supernatural.S11E09.Das.Ende.der.Finsternis.GERMAN.DUBBED.DL.720p.BluRay.x264-TVP 

Supernatural.S11E10.Die.Auferstehung.der.Finsternis.GERMAN.DUBBED.DL.720p.BluRay.x264-TVP

Supernatural.S11E11.Im.Nebel.GERMAN.DUBBED.DL.720p.BluRay.x264-TVP 

Supernatural.S11E12.Vergiss.mein.nicht.GERMAN.DUBBED.DL.720p.BluRay.x264-TVP

Supernatural.S11E13.Die.Sehnsucht.nach.Finsternis.GERMAN.DUBBED.DL.720p.BluRay.x264-TVP 

Supernatural.S11E14.Das.Boot.GERMAN.DUBBED.DL.720p.BluRay.x264-TVP

Supernatural.S11E15.Jenseits.des.Rings.GERMAN.DUBBED.DL.720p.BluRay.x264-TVP

Supernatural.S11E16.Geisterhaus.GERMAN.DUBBED.DL.720p.BluRay.x264-TVP

Supernatural.S11E17.Rotes.Fleisch.GERMAN.DUBBED.DL.720p.BluRay.x264-TVP 

Supernatural.S11E18.Die.Rache.der.Finsternis.GERMAN.DUBBED.DL.720p.BluRay.x264-TVP

Supernatural.S11E19.Die.Zitterer.GERMAN.DUBBED.DL.720p.BluRay.x264-TVP 

Supernatural.S11E20.Nenn.mich.nicht.Feigling.GERMAN.DUBBED.DL.720p.BluRay.x264-TVP

Supernatural.S11E21.Die.Familie.der.Finsternis.GERMAN.DUBBED.DL.720p.BluRay.x264-TVP 

Supernatural.S11E22.Ein.ungleiches.Buendnis.GERMAN.DUBBED.DL.720p.BluRay.x264-TVP

Supernatural.S11E23.Das.Licht.der.Finsternis.GERMAN.DUBBED.DL.720p.BluRay.x264-TVP NEU



General
Complete name                            : Supernatural.S11E01.Das.Feuer.der.Finsternis.GERMAN.DUBBED.DL.720p.BluRay.x264-TVP\tvp-supernatural-s11e01-720p.mkv
Format                                   : Matroska
Format version                           : Version 2
File size                                : 1.90 GiB
Duration                                 : 40mn 43s
Overall bit rate                         : 6 676 Kbps
Movie name                               : Supernatural.S11E01.Das.Feuer.der.Finsternis.GERMAN.DUBBED.DL.720p.BluRay.x264-TVP
Encoded date                             : UTC 2016-11-03 18:12:44
Writing application                      : mkvmerge v5.6.0 ('Kenya Kane') built on May 28 2012 06:47:39
Writing library                          : libebml v1.2.2 + libmatroska v1.3.0

Video
ID                                       : 1
Format                                   : AVC
Format/Info                              : Advanced Video Codec
Format profile                           : High@L4.1
Format settings, CABAC                   : Yes
Format settings, ReFrames                : 5 frames
Codec ID                                 : V_MPEG4/ISO/AVC
Duration                                 : 40mn 43s
Bit rate                                 : 5 849 Kbps
Width                                    : 1 280 pixels
Height                                   : 720 pixels
Display aspect ratio                     : 16:9
Frame rate mode                          : Constant
Frame rate                               : 25.000 fps
Original frame rate                      : 23.976 fps
Color space                              : YUV
Chroma subsampling                       : 4:2:0
Bit depth                                : 8 bits
Scan type                                : Progressive
Bits/(Pixel*Frame)                       : 0.254
Stream size                              : 1.70 GiB (89%)
Title                                    : tvp-supernatural-s11e01-720p
Writing library                          : x264 core 148 r2705 3f5ed56
Encoding settings                        : cabac=1 / ref=5 / deblock=1:1:1 / analyse=0x3:0x133 / me=umh / subme=8 / psy=1 / psy_rd=1.00:0.00 / mixed_ref=1 / me_range=16 / chroma_me=1 / trellis=1 / 8x8dct=1 / cqm=0 / deadzone=21,11 / fast_pskip=0 / chroma_qp_offset=-2 / threads=12 / lookahead_threads=2 / sliced_threads=0 / nr=0 / decimate=1 / interlaced=0 / bluray_compat=0 / constrained_intra=0 / bframes=3 / b_pyramid=2 / b_adapt=2 / b_bias=0 / direct=3 / weightb=1 / open_gop=0 / weightp=2 / keyint=250 / keyint_min=23 / scenecut=40 / intra_refresh=0 / rc_lookahead=50 / rc=2pass / mbtree=1 / bitrate=5849 / ratetol=1.0 / qcomp=0.60 / qpmin=0 / qpmax=69 / qpstep=4 / cplxblur=20.0 / qblur=0.5 / ip_ratio=1.40 / aq=1:1.00
Language                                 : German
Default                                  : Yes
Forced                                   : Yes

Audio #1
ID                                       : 2
Format                                   : AC-3
Format/Info                              : Audio Coding 3
Mode extension                           : CM (complete main)
Format settings, Endianness              : Big
Codec ID                                 : A_AC3
Duration                                 : 40mn 43s
Bit rate mode                            : Constant
Bit rate                                 : 192 Kbps
Channel(s)                               : 2 channels
Channel positions                        : Front: L R
Sampling rate                            : 48.0 KHz
Bit depth                                : 16 bits
Compression mode                         : Lossy
Stream size                              : 55.9 MiB (3%)
Language                                 : German
Default                                  : Yes
Forced                                   : Yes

Audio #2
ID                                       : 3
Format                                   : AC-3
Format/Info                              : Audio Coding 3
Mode extension                           : CM (complete main)
Format settings, Endianness              : Big
Codec ID                                 : A_AC3
Duration                                 : 40mn 43s
Bit rate mode                            : Constant
Bit rate                                 : 384 Kbps
Channel(s)                               : 6 channels
Channel positions                        : Front: L C R, Side: L R, LFE
Sampling rate                            : 48.0 KHz
Bit depth                                : 16 bits
Compression mode                         : Lossy
Stream size                              : 112 MiB (6%)
Language                                 : English
Default                                  : No
Forced                                   : No



Download:
Share-Online.biz Share-Online.bizShare-Online.bizShare-Online.biz | Uploaded.net Uploaded.netUploaded.netUploaded.net
 

Kommentare